Welcome Guest ( Log In | Register )

Объявления

* gmail.com упорно продолжает считать почту с нас "unsolicited" и отбивает в том числе и письма активации, поэтому просьба использовать альтернативные почтовые ящики.
------------
* gmail.com continues reject all mail from us as "unsolicited" (activation mails too) therefore please use alternate mail servers.

> Releases Upload / Добавление релизов

Добавить релиз тут / Click here to add release
Рекомендованные обменники / Recommended file shares

 
Reply to this topicStart new topic
> Poodator - Shitty [ep] (2024), Goregrind/Coprogrind (D4)
post May 15 2024, 13:14:45
Post #1

Serial Uploader
Group Icon
Group: V.I.P
Posts: 42,566
Releases: 40632
From: Lithuania
On Forums: 15 years 11 months
Thanks: 520830 time(s)
Lithuania


(IMG:https://metalarea.org/images/audiocovers/2024_May/acov_tid397115_thumb.jpg)

*Artist: Poodator
*Album: Shitty [ep]
*Year: 2024
*Genre: Goregrind/Coprogrind
*Country: Poland (IMG:https://metalarea.org/forum/style_images/flags/Poland.png)
*Format: mp3@CBR320kbps
*Size: 12MB

Tracklist:
1. Descending Into Shit
2. Death Takes A Shit
3. Chainshit Made Of Saw
4. Pigs Don't Eat Shit... Humans Do
5. Shitfluencers
6. O Bidi Bodi Yey
7. Long Title And A Really Short Shit
8. Outshit
******************************
Total playing time: 5:16

Preview 1

(IMG:https://metalarea.org/images/youtube.png)

Technical info
(IMG:https://metalarea.org/images/spectrogram/2024_May/37412dbab97e50294946a76f93e0bd06.png)
Input File: 01. Shitty.mp3
Channels : 2
Sample Rate : 44100
Precision : 16-bit
Duration : 00:05:16.44 = 13954916 samples = 23732.9 CDDA sectors
File Size : 12.9M
Bit Rate : 325k
Sample Encoding: MPEG audio (layer I, II or III)
Comments :
Title=Shitty
Artist=Poodator
Album=SHITTY EP
Tracknumber=1
Year=2024



Register


Go to the top of the page
  Insert nick Quick quote
+Quote Post

Reply to this topicStart new topic
1 User(s) are reading this topic (1 Guests and 0 Anonymous Users)
0 Members:

 



- Lo-Fi Version Support form
Copyrights and abuse reports form
Time is now: 22nd May 2024 - 10:08:22