Welcome Guest ( Log In | Register )

Объявления

* gmail.com упорно продолжает считать почту с нас "unsolicited" и отбивает в том числе и письма активации, поэтому просьба использовать альтернативные почтовые ящики.
------------
* gmail.com continues reject all mail from us as "unsolicited" (activation mails too) therefore please use alternate mail servers.

> Releases Upload / Добавление релизов

Добавить релиз тут / Click here to add release
Рекомендованные обменники / Recommended file shares

 
Reply to this topicStart new topic
> Perky Macabre - Hippie Guts And Nag Champa [ep] (2024), Grindcore (D425)
post May 15 2024, 13:30:22
Post #1

Serial Uploader
Group Icon
Group: V.I.P
Posts: 42,566
Releases: 40632
From: Lithuania
On Forums: 15 years 11 months
Thanks: 520830 time(s)
Lithuania


(IMG:https://metalarea.org/images/audiocovers/2024_May/acov_tid397116_thumb.png)

*Artist: Perky Macabre
*Album: Hippie Guts And Nag Champa [ep]
*Year: 2024
*Genre: Grindcore
*Country: United States (IMG:https://metalarea.org/forum/style_images/flags/United%20States.png)
*Format: mp3@CBR320kbps
*Size: 12MB

Tracklist:
1. When I Die, Shrink My Head 00:24
2. Hippie Guts And Nag Champa 00:12
3. Party City Blood Bath 00:49
4. Splayed And Mansplained 00:13
5. Tawnee Stone 00:18
6. Killed And Stuffed With Crystals 00:27
7. The Roku City Strangler 00:13
8. Molested In The Astral Realm 00:07
9. Five Violent Manifestations 00:57
10. Release Your Seed Of Filth 00:39
11. Rotten Flesh Now Awakens 00:24
12. Screams Of The Virgin Mother 00:22
******************************
Total playing time: 5:05



Technical info
(IMG:https://metalarea.org/images/spectrogram/2024_May/66ab9b105d6b96bfc361468353817b9b.png)
Input File: Perky Macabre - Hippie Guts And Nag Champa - 08 Molested In The Astral Realm.mp3
Channels : 2
Sample Rate : 44100
Precision : 16-bit
Duration : 00:00:07.84 = 345612 samples = 587.776 CDDA sectors
File Size : 383k
Bit Rate : 391k
Sample Encoding: MPEG audio (layer I, II or III)
Comments :
Title=Molested In The Astral Realm
Artist=Perky Macabre
Album=Hippie Guts And Nag Champa
Tracknumber=8
Year=2024



Register


Go to the top of the page
  Insert nick Quick quote
+Quote Post

Reply to this topicStart new topic
1 User(s) are reading this topic (1 Guests and 0 Anonymous Users)
0 Members:

 



- Lo-Fi Version Support form
Copyrights and abuse reports form
Time is now: 22nd May 2024 - 10:21:17