Welcome Guest ( Log In | Register )

Объявления

* gmail.com упорно продолжает считать почту с нас "unsolicited" и отбивает в том числе и письма активации, поэтому просьба использовать альтернативные почтовые ящики.
------------
* gmail.com continues reject all mail from us as "unsolicited" (activation mails too) therefore please use alternate mail servers.

> Releases Upload / Добавление релизов

Добавить релиз тут / Click here to add release
Рекомендованные обменники / Recommended file shares

> Sons Of Cult - Desolation [ep] (2024), Heavy Metal
post May 15 2024, 13:38:12
Post #1

Serial Uploader
Group Icon
Group: V.I.P
Posts: 42,805
Releases: 40868
From: Lithuania
On Forums: 16 years 2 weeks
Thanks: 524542 time(s)
Lithuania


(IMG:https://metalarea.org/images/audiocovers/2024_May/acov_tid397118_thumb.jpg)

*Artist: Sons Of Cult
*Album: Desolation [ep]
*Year: 2024
*Genre: Heavy Metal
*Country: Spain (IMG:https://metalarea.org/forum/style_images/flags/Spain.png)
*Format: mp3@CBR320kbps
*Size: 36MB

Tracklist:
1. Here We Are 04:02
2. Desolation 04:12
3. Now It's My Turn 03:11
4. Too Late Again 03:40
******************************
Total playing time: 15:05


Preview 2
(IMG:https://metalarea.org/images/youtube.png)

Technical info
(IMG:https://metalarea.org/images/spectrogram/2024_May/dcc5b16bdad71153eabc4bd727cfff15.png)
Input File: 03 - Now It\'s My Turn.mp3
Channels : 2
Sample Rate : 44100
Precision : 16-bit
Duration : 00:03:11.72 = 8454984 samples = 14379.2 CDDA sectors
File Size : 8.07M
Bit Rate : 337k
Sample Encoding: MPEG audio (layer I, II or III)
Comments :
Title=Now It's My Turn
Artist=Sons of Cult
Album=Desolation
Tracknumber=3/4
Year=2024
Discnumber=1/1



Register


Go to the top of the page
  Insert nick Quick quote
+Quote Post
 
Start new topic
Replies (1 - 2)
post May 16 2024, 10:01:11
Post #2

Литр
*
Group: Подсевший
Posts: 72
Releases: 0
From: Barcelona - Spain
On Forums: 1 year 4 months
Thanks: 5 time(s)
Spain


Line-Up:

Jordi Segura : Drums
Vicente Payá Guitars (Bis•nte, Decrapted, Golgotha, Holycide, Unbounded Terror, Yskelgroth, Amon the Sign, Unwom, ex-Shock Wave, ex-Kocsis, ex-Lucifer)
Jaume Vilanova: Vocals ( ex-Whoremageddon)
Vicky Offidani: Bass
Dan Garcia : Guitars (Golgotha)
Go to the top of the page
  Insert nick Quick quote
+Quote Post
post May 17 2024, 10:23:09
Post #3

Group: Подсевший
Posts: 25
Releases: 0
On Forums: 1 year 5 months
Thanks: 2 time(s)
Spain


Genial, muchas gracias, gran banda de Metal clasico.
Esto si es velocidad, sale ayer y ya lo tenéis, jajaja.
Mcuhas gracias.

Отлично, большое спасибо, отличная классическая метал-группа.
Это скорость, она вышла вчера и уже есть, ха-ха-ха.
Большое спасибо.
Go to the top of the page
  Insert nick Quick quote
+Quote Post

Reply to this topicStart new topic
1 User(s) are reading this topic (1 Guests and 0 Anonymous Users)
0 Members:

 



- Lo-Fi Version Support form
Copyrights and abuse reports form
Time is now: 24th June 2024 - 08:16:12