Welcome Guest ( Log In | Register )

Объявления

* gmail.com упорно продолжает считать почту с нас "unsolicited" и отбивает в том числе и письма активации, поэтому просьба использовать альтернативные почтовые ящики.
------------
* gmail.com continues reject all mail from us as "unsolicited" (activation mails too) therefore please use alternate mail servers.

> Releases Upload / Добавление релизов

Добавить релиз тут / Click here to add release
Рекомендованные обменники / Recommended file shares

 
Reply to this topicStart new topic
> Jan Gonzalez - Death To All Tyranny [ep] (2024), Instrumental Black/Death Metal
post May 15 2024, 13:49:06
Post #1

Serial Uploader
Group Icon
Group: V.I.P
Posts: 42,566
Releases: 40632
From: Lithuania
On Forums: 15 years 11 months
Thanks: 520825 time(s)
Lithuania


(IMG:https://metalarea.org/images/audiocovers/2024_May/acov_tid397119_thumb.jpg)

*Artist: Jan Gonzalez
*Album: Death To All Tyranny [ep]
*Year: 2024
*Genre: Instrumental Black/Death Metal
*Country: United States (IMG:https://metalarea.org/forum/style_images/flags/United%20States.png)
*Format: mp3@CBR320kbps
*Size: 42MB

Tracklist:
1. Under The Black Moon 03:55
2. Tainted In Blood 05:41
3. Egg Of The Mutilated 04:20
4. Breeding A New Spell 04:17
******************************
Total playing time: 18:13



Technical info
(IMG:https://metalarea.org/images/spectrogram/2024_May/ed7f393dc91573c5f178dc562d0cfa48.png)
Input File: 02. Tainted In Blood.mp3
Channels : 2
Sample Rate : 44100
Precision : 16-bit
Duration : 00:05:41.78 = 15072410 samples = 25633.4 CDDA sectors
File Size : 13.9M
Bit Rate : 324k
Sample Encoding: MPEG audio (layer I, II or III)
Comments :
Title=Tainted In Blood
Artist=Jan Gonzalez
Album=Death To All Tyranny
Tracknumber=2
Year=2024



Register


Thanks:
Go to the top of the page
  Insert nick Quick quote
+Quote Post

Reply to this topicStart new topic
1 User(s) are reading this topic (1 Guests and 0 Anonymous Users)
0 Members:

 



- Lo-Fi Version Support form
Copyrights and abuse reports form
Time is now: 22nd May 2024 - 08:55:46