Welcome Guest ( Log In | Register )

Объявления

* gmail.com упорно продолжает считать почту с нас "unsolicited" и отбивает в том числе и письма активации, поэтому просьба использовать альтернативные почтовые ящики.
------------
* gmail.com continues reject all mail from us as "unsolicited" (activation mails too) therefore please use alternate mail servers.

> Releases Upload / Добавление релизов

Добавить релиз тут / Click here to add release
Рекомендованные обменники / Recommended file shares

 
Reply to this topicStart new topic
> Dreamweaver - Sign Of The Ancient Flame [single] (2024), Heavy Metal
post May 15 2024, 14:28:00
Post #1

Правь статус, 616
**************
Group: Металариец
Posts: 10,828
Releases: 8818
From: 55°35’N 38°08’E
On Forums: 15 years 11 months
Thanks: 156993 time(s)
Russian Federation


(IMG:https://metalarea.org/images/audiocovers/2024_May/acov_tid397121_thumb.jpg)

*Artist: Dreamweaver
*Album: Sign Of The Ancient Flame [single]
*Year: 2024
*Genre: Heavy Metal
*Country: Spain (IMG:https://metalarea.org/forum/style_images/flags/Spain.png)
*Format: mp3@CBR320kbps
*Size: 31MB

Tracklist:
1.Sign of the Ancient Flame 05:44
2.Zoroaster 07:44
******************************
Total playing time: 13:28

(IMG:https://metalarea.org/images/youtube.png)
instagram
Preview 3

Technical info
(IMG:https://metalarea.org/images/spectrogram/2024_May/3bc1cb1c1df0063830c33b4b1e1bb740.png)
Input File: 02 Zoroaster.mp3
Channels : 2
Sample Rate : 44100
Precision : 16-bit
Duration : 00:07:44.83 = 20498783 samples = 34861.9 CDDA sectors
File Size : 18.8M
Bit Rate : 324k
Sample Encoding: MPEG audio (layer I, II or III)
Comments :
Title=Zoroaster
Artist=Dreamweaver
Album=Sign of the Ancient Flame
Tracknumber=2/2
Year=2024
Genre=Heavy Metal
Discnumber=1/1



Register


Go to the top of the page
  Insert nick Quick quote
+Quote Post

Reply to this topicStart new topic
1 User(s) are reading this topic (1 Guests and 0 Anonymous Users)
0 Members:

 



- Lo-Fi Version Support form
Copyrights and abuse reports form
Time is now: 18th June 2024 - 16:45:17