Welcome Guest ( Log In | Register )

Объявления

* gmail.com упорно продолжает считать почту с нас "unsolicited" и отбивает в том числе и письма активации, поэтому просьба использовать альтернативные почтовые ящики.
------------
* gmail.com continues reject all mail from us as "unsolicited" (activation mails too) therefore please use alternate mail servers.

> Releases Upload / Добавление релизов

Добавить релиз тут / Click here to add release
Рекомендованные обменники / Recommended file shares

> Evoked - Immoral Arts [ep] (2024), Old School Death Metal
post May 15 2024, 15:31:00
Post #1

Правь статус, ####!111
**************
Group: Металариец
Posts: 35,939
Releases: 26783
From: Г.Харьков
On Forums: 12 years 2 weeks
Thanks: 580982 time(s)
Ukraine


(IMG:https://metalarea.org/images/audiocovers/2024_May/acov_tid397123_thumb.jpg)

*Artist: Evoked
*Album: Immoral Arts [ep]
*Year: 2024
*Genre: Old School Death Metal
*Country: Germany (IMG:https://metalarea.org/forum/style_images/flags/Germany.png)
*Format: mp3@CBR320kbps
*Size: 50MB

Tracklist:
1. Immoral Arts 03:56
2. From The Distance 04:00
3. A Nameless Grave 04:11
4. Behind The Eyes 05:10
5. Blunt Force Trauma 03:20
******************************
Total playing time: 20:37




Extended info
Artilleratör Drums (2013-present)
See also: ex-Beer Pressure, ex-Genocide, ex-Obsessör, ex-Wilt (live)
Bonesaw Guitars, Vocals (2013-present)
See also: ex-Mania, Razor's Edge
Gravecrawler Bass (2023-present)
See also: Death by Exile, ex-Brutal Sphincter, ex-Vigore


Technical info
(IMG:https://metalarea.org/images/spectrogram/2024_May/d381059f96d956a1c26a85b62d7f9eee.png)
Input File: 04. Behind the Eyes.mp3
Channels : 2
Sample Rate : 44100
Precision : 16-bit
Duration : 00:05:11.09 = 13718893 samples = 23331.5 CDDA sectors
File Size : 12.9M
Bit Rate : 331k
Sample Encoding: MPEG audio (layer I, II or III)
Comments :
Title=Behind the Eyes
Artist=Evoked
Album=Immoral Arts
Tracknumber=4
Year=2024
Genre=OSDM



Register


Go to the top of the page
  Insert nick Quick quote
+Quote Post
 
Start new topic
Replies (1 - 3)
post May 15 2024, 17:13:25
Post #2

Правь статус, ####!111
**************
Group: Металариец
Posts: 35,939
Releases: 26783
From: Г.Харьков
On Forums: 12 years 2 weeks
Thanks: 580982 time(s)
Ukraine


FLAC (Tracks) 183 mb
Register


Go to the top of the page
  Insert nick Quick quote
+Quote Post
post May 16 2024, 20:20:47
Post #3

MDM-Thrash Metal
**************
Group: Металариец
Posts: 12,446
Releases: 1741
From: Одесса
On Forums: 16 years 9 months
Thanks: 40433 time(s)
Ukraine


Очень приятная вещица. (IMG:style_emoticons/default/20.gif)
Go to the top of the page
  Insert nick Quick quote
+Quote Post
post May 17 2024, 14:45:35
Post #4

Два Литра
**
Group: Завсегдатай
Posts: 186
Releases: 0
On Forums: 4 years 4 months
Thanks: 83 time(s)
Unknown


Мне понравился. Их дебютник не зашел а этот даже очень.
Go to the top of the page
  Insert nick Quick quote
+Quote Post

Reply to this topicStart new topic
1 User(s) are reading this topic (1 Guests and 0 Anonymous Users)
0 Members:

 



- Lo-Fi Version Support form
Copyrights and abuse reports form
Time is now: 25th May 2024 - 17:46:22