Welcome Guest ( Log In | Register )

Объявления

* gmail.com упорно продолжает считать почту с нас "unsolicited" и отбивает в том числе и письма активации, поэтому просьба использовать альтернативные почтовые ящики.
------------
* gmail.com continues reject all mail from us as "unsolicited" (activation mails too) therefore please use alternate mail servers.

> Releases Upload / Добавление релизов

Добавить релиз тут / Click here to add release
Рекомендованные обменники / Recommended file shares

> Baardvader - When The Stars Arrive (2024), Stoner/Doom Metal
post May 15 2024, 16:28:33
Post #1

Правь статус, ####!111
**************
Group: Металариец
Posts: 35,908
Releases: 26755
From: Г.Харьков
On Forums: 12 years 1 week
Thanks: 580370 time(s)
Ukraine


(IMG:https://metalarea.org/images/audiocovers/2024_May/acov_tid397125_thumb.jpg)

*Artist: Baardvader
*Album: When The Stars Arrive
*Year: 2024
*Genre: Stoner/Doom Metal
*Country: Netherlands (IMG:https://metalarea.org/forum/style_images/flags/Netherlands.png)
*Format: mp3@CBR320kbps
*Size: 126MB

Tracklist:
1. I Know You Know
2. Let Go
3. Goodbye
4. Redemption Day
5. The False Prophet
6. Save Ourselves
7. When the Stars Arrive
******************************
Total playing time: 54:20



Technical info
(IMG:https://metalarea.org/images/spectrogram/2024_May/2966e35a02fee75bbf8c2ba56eb49215.png)
Input File: 04 - Redemption Day.mp3
Channels : 2
Sample Rate : 44100
Precision : 16-bit
Duration : 00:07:30.00 = 19845000 samples = 33750 CDDA sectors
File Size : 18.3M
Bit Rate : 325k
Sample Encoding: MPEG audio (layer I, II or III)
Comments :
Title=Redemption Day
Artist=Baardvader
Album=When The Stars Arrive
Tracknumber=4
Year=2024-05-16
Genre=Rock
Discnumber=1



Register


Go to the top of the page
  Insert nick Quick quote
+Quote Post
 
Start new topic
Replies (1 - 1)
post May 16 2024, 09:47:30
Post #2

Правь статус, ####!111
**************
Group: Металариец
Posts: 2,519
Releases: 417
From: Bretagne
On Forums: 16 years 5 days
Thanks: 5086 time(s)
France


doom/stoner rock
full album youtube preview :
https://youtu.be/JOxta--nBQ4?si=PbHvoytzuNehFL-E
Go to the top of the page
  Insert nick Quick quote
+Quote Post

Reply to this topicStart new topic
1 User(s) are reading this topic (1 Guests and 0 Anonymous Users)
0 Members:

 



- Lo-Fi Version Support form
Copyrights and abuse reports form
Time is now: 22nd May 2024 - 09:12:46