Welcome Guest ( Log In | Register )

Объявления

* gmail.com упорно продолжает считать почту с нас "unsolicited" и отбивает в том числе и письма активации, поэтому просьба использовать альтернативные почтовые ящики.
------------
* gmail.com continues reject all mail from us as "unsolicited" (activation mails too) therefore please use alternate mail servers.
 
Reply to this topicStart new topic
> Etwas - Rites Of The Damned - Chvpter II (2024), Occult Symphonic Metal
post May 15 2024, 17:10:39
Post #1

Правь статус, ####!111
**************
Group: Металариец
Posts: 36,412
Releases: 27150
From: Г.Харьков
On Forums: 12 years 2 months
Thanks: 591287 time(s)
Ukraine


(IMG:https://metalarea.org/images/audiocovers/2024_May/acov_tid397126_thumb.jpg)

*Artist: Etwas
*Album: Rites Of The Damned - Chvpter II
*Year: 2024
*Genre: Occult Symphonic Metal
*Country: France (IMG:https://metalarea.org/forum/style_images/flags/France.png)
*Format: mp3@CBR320kbps
*Size: 98MB

Tracklist:
1. Rites of the Damned
2. The Masque of the Red Death
3. Haunting Curse
4. Seance of Shadows
5. Unholy Verses
6. Danse Macabre
7. Spectral Dominion
8. Bloodmoon Invocation
9. Litanies of Darkness
10. Ethereal Necropolis
******************************
Total playing time: 42:23




Extended info
Florian Bestion Bass (2017-present)
Silver Croze Guitars (2017-present)
See also: All Dogmas We Hate, Podonok
Victoria Hove Vocals (2017-present)
Clément Jost Drums (2020-present)
See also: Krematoria


Technical info
(IMG:https://metalarea.org/images/spectrogram/2024_May/ff5a0d96bdb930b000aa96163e50249c.png)
Input File: 07 - Spectral Dominion.mp3
Channels : 2
Sample Rate : 44100
Precision : 16-bit
Duration : 00:05:14.00 = 13847400 samples = 23550 CDDA sectors
File Size : 12.7M
Bit Rate : 324k
Sample Encoding: MPEG audio (layer I, II or III)
Comments :
Title=Spectral Dominion
Artist=ETWAS
Album=Rites of the Damned - Chvpter II
Tracknumber=7
Year=2024-05-16
Genre=Metal
Discnumber=1



Register


Go to the top of the page
  Insert nick Quick quote
+Quote Post

Reply to this topicStart new topic
1 User(s) are reading this topic (1 Guests and 0 Anonymous Users)
0 Members:

 



- Lo-Fi Version Support form
Copyrights and abuse reports form
Time is now: 15th July 2024 - 22:13:11