Welcome Guest ( Log In | Register )

Объявления

* gmail.com упорно продолжает считать почту с нас "unsolicited" и отбивает в том числе и письма активации, поэтому просьба использовать альтернативные почтовые ящики.
------------
* gmail.com continues reject all mail from us as "unsolicited" (activation mails too) therefore please use alternate mail servers.
> Northern Krig - Concept Of A Suicidal Journey (2024), Black Metal
post May 15 2024, 20:04:10
Post #1

Правь статус, ####!111
**************
Group: Металариец
Posts: 36,414
Releases: 27151
From: Г.Харьков
On Forums: 12 years 2 months
Thanks: 591352 time(s)
Ukraine


(IMG:https://metalarea.org/images/audiocovers/2024_May/acov_tid397134_thumb.jpg)

*Artist: Northern Krig
*Album: Concept Of A Suicidal Journey
*Year: 2024
*Genre: Black Metal
*Country: Norway (IMG:https://metalarea.org/forum/style_images/flags/Norway.png)
*Format: mp3@CBR320kbps
*Size: 116MB

Tracklist:
1. Prologue 00:44
2. Hostis Humani Generis 04:38
3. Exanimationes Incidamus 05:07
4. Ceryx 01:33
5. Arma Capere 04:50
6. Adraxone 05:15
7. Hostis Humani Generis II - Patentia I 02:51
8. Juna 00:24
9. Mors Innocentiae 03:52
10. Hostis Humani Generis III - Patentia II 03:15
11. Animam Agere 05:37
12. Mors Ultima Linea Rerum Est! 09:17
13. Epilogue 01:09
******************************
Total playing time: 48:32



Extended info
Mikkel Stein Bass (2021-present)
Jonar Gunnarson Drums (2021-present)
Erik Lund Guitars (2021-present)
See also: ex-Skyrsdag
Morfran Vocals (2021-present)
See also: 18.98 Occultus Penetration, ex-Skyrsdag


Technical info
(IMG:https://metalarea.org/images/spectrogram/2024_May/e7f66333a5b7dddeffc4625459ca287a.png)
Input File: 11 - Animam Agere.mp3
Channels : 2
Sample Rate : 44100
Precision : 16-bit
Duration : 00:05:44.00 = 15170400 samples = 25800 CDDA sectors
File Size : 14.0M
Bit Rate : 325k
Sample Encoding: MPEG audio (layer I, II or III)
Comments :
Title=Animam Agere
Artist=Northern Krig
Album=Concept Of A Suicidal Journey
Tracknumber=11
Year=2024-04-27
Genre=Rock
Discnumber=1



Register


Go to the top of the page
  Insert nick Quick quote
+Quote Post
 
Start new topic
Replies (1 - 3)
post May 16 2024, 02:16:27
Post #2

Два Литра
**
Group: Завсегдатай
Posts: 167
Releases: 0
On Forums: 5 years 6 months
Thanks: 51 time(s)
Russian Federation


Злобные ребята.
Go to the top of the page
  Insert nick Quick quote
+Quote Post
post May 16 2024, 09:52:24
Post #3

Правь статус, ####!111
**************
Group: Металариец
Posts: 2,850
Releases: 426
From: Bretagne
On Forums: 16 years 1 month
Thanks: 5357 time(s)
France


atmospheric/depressive black metal in the norwegian way (IMG:style_emoticons/default/20.gif)
full album preview :
Go to the top of the page
  Insert nick Quick quote
+Quote Post
post May 16 2024, 10:01:56
Post #4

Full-of-Hate
**************
Group: Металариец
Posts: 5,804
Releases: 0
From: Moscow
On Forums: 15 years 2 weeks
Thanks: 7172 time(s)
Russian Federation


Корявый сыряк, но терпимо. Этот альбом зальют на бандкамп, ютуб и на стенку разных пабликов, после чего мп3 файлы будут преданы забвению в тот же день. Большой идеи не слышу, так чисто порубить злую музыку, какую смогли сочинить.

Особое недовольство вызывает обложка этого произведения. Если они обложку физического издания так же замылили, то стало быть коллектив незрелый и не способный отстоять свои убеждения.
Go to the top of the page
  Insert nick Quick quote
+Quote Post

Reply to this topicStart new topic
1 User(s) are reading this topic (1 Guests and 0 Anonymous Users)
0 Members:

 



- Lo-Fi Version Support form
Copyrights and abuse reports form
Time is now: 16th July 2024 - 07:07:14