Welcome Guest ( Log In | Register )

Объявления

* gmail.com упорно продолжает считать почту с нас "unsolicited" и отбивает в том числе и письма активации, поэтому просьба использовать альтернативные почтовые ящики.
------------
* gmail.com continues reject all mail from us as "unsolicited" (activation mails too) therefore please use alternate mail servers.

> Releases Upload / Добавление релизов

Добавить релиз тут / Click here to add release
Рекомендованные обменники / Recommended file shares

 
Reply to this topicStart new topic
> Otrogen - Życie Nie Dostarcza Nam Tego, Co Chcemy (2024), Heavy Metal
post May 16 2024, 08:48:16
Post #1

Правь статус, ####!111
**************
Group: Металариец
Posts: 9,151
Releases: 7386
On Forums: 13 years 7 months
Thanks: 130028 time(s)
Italy


(IMG:https://metalarea.org/images/audiocovers/2024_May/acov_tid397145_thumb.jpg)

*Artist: Otrogen
*Album: Życie Nie Dostarcza Nam Tego, Co Chcemy
*Year: 2024
*Genre: Heavy Metal
*Country: Poland (IMG:https://metalarea.org/forum/style_images/flags/Poland.png)
*Format: mp3@CBR320kbps
*Size: 91MB

Tracklist:
01.Blady Świt 03:32
02.Choroba Naszych Czasów 04:42
03.Nocna Macka 04:07
04.Pytania 04:18
05.Fabryka Koszmarów 05:03
06.Butelki 04:34
07.Plany 06:01
08.Wyzwolenie 06:30
******************************
Total playing time: 38:47

(IMG:https://metalarea.org/images/youtube.png)

(IMG:https://metalarea.org/images/youtube.png)

Technical info
(IMG:https://metalarea.org/images/spectrogram/2024_May/f3be2e3672ba4db3cf56ffa03a4bdca6.png)
Input File: 5.Fabryka Koszmarów.mp3
Channels : 2
Sample Rate : 44100
Precision : 16-bit
Duration : 00:05:02.86 = 13355994 samples = 22714.3 CDDA sectors
File Size : 12.5M
Bit Rate : 330k
Sample Encoding: MPEG audio (layer I, II or III)
Comments :
Title=Fabryka Koszmarów
Artist=OTROGEN
Album=Życie nie dostarcza nam tego, co chcemy
Tracknumber=5/8
Year=2024
Discnumber=1/1



Register


Go to the top of the page
  Insert nick Quick quote
+Quote Post

Reply to this topicStart new topic
1 User(s) are reading this topic (1 Guests and 0 Anonymous Users)
0 Members:

 



- Lo-Fi Version Support form
Copyrights and abuse reports form
Time is now: 24th June 2024 - 06:45:26