Welcome Guest ( Log In | Register )

Объявления

* gmail.com упорно продолжает считать почту с нас "unsolicited" и отбивает в том числе и письма активации, поэтому просьба использовать альтернативные почтовые ящики.
------------
* gmail.com continues reject all mail from us as "unsolicited" (activation mails too) therefore please use alternate mail servers.

> Releases Upload / Добавление релизов

Добавить релиз тут / Click here to add release
Рекомендованные обменники / Recommended file shares

> Orion Child - Aesthesis (2024), Power Metal (D4)
post May 16 2024, 11:52:09
Post #1

Serial Uploader
Group Icon
Group: V.I.P
Posts: 42,805
Releases: 40868
From: Lithuania
On Forums: 16 years 2 weeks
Thanks: 524534 time(s)
Lithuania


(IMG:https://metalarea.org/images/audiocovers/2024_May/acov_tid397160_thumb.jpg)

*Artist: Orion Child
*Album: Aesthesis
*Year: 2024
*Genre: Power Metal
*Country: Spain (IMG:https://metalarea.org/forum/style_images/flags/Spain.png)
*Format: mp3@CBR320kbps
*Size: 118MB

Tracklist:
1. Revel{AI}tions 02:13
2. Skhuldom 06:06
3. Aesthesis 04:14
4. When the Tide Arises 04:22
5. My Redemption 06:31
6. Reaching for the Stars 05:22
7. Numbers are Law 05:08
8. Forever 06:11
9. Runaway 05:22
10. Prisoners of the Past 06:37
******************************
Total playing time: 52:06

(IMG:https://metalarea.org/images/myspace.png)

Preview 3
(IMG:https://metalarea.org/images/youtube.png)

Technical info
(IMG:https://metalarea.org/images/spectrogram/2024_May/e8d6ea0248a27a18a672a78e3138fbd4.png)
Input File: 02 - Skhuldom.mp3
Channels : 2
Sample Rate : 44100
Precision : 16-bit
Duration : 00:05:51.34 = 15494226 samples = 26350.7 CDDA sectors
File Size : 14.3M
Bit Rate : 326k
Sample Encoding: MPEG audio (layer I, II or III)
Comments :
Title=Skhuldom
Artist=Orion Child
Album=Aesthesis
Tracknumber=2/10
Year=2024
Discnumber=1/1



Register


Go to the top of the page
  Insert nick Quick quote
+Quote Post
 
Start new topic
Replies (1 - 3)
post May 16 2024, 17:56:08
Post #2

Литр
*
Group: Подсевший
Posts: 72
Releases: 0
From: Barcelona - Spain
On Forums: 1 year 4 months
Thanks: 5 time(s)
Spain


Line-Up:

Gabriel Barahona: Drums
Víctor Hernández: Vocals (lead)
Daedin Naikedesse: Guitars
Jones: Guitars, Vocals (harsh)
Jon Koldo Tera: Keyboards, Vocals (backing)
Rafi: Bass
Go to the top of the page
  Insert nick Quick quote
+Quote Post
post May 16 2024, 20:51:10
Post #3

MDM-Thrash Metal
**************
Group: Металариец
Posts: 12,499
Releases: 1746
From: Одесса
On Forums: 16 years 10 months
Thanks: 40517 time(s)
Ukraine


Очень приличного качества материал (внезапно), с добротными вокалом и неплохой муз составляющей!
Приятный и нежданный сюрприз от гишпанцев.
Go to the top of the page
  Insert nick Quick quote
+Quote Post
post Jun 17 2024, 19:41:56
Post #4

Перевозчик
**************
Group: Металариец
Posts: 3,635
Releases: 0
On Forums: 15 years 11 months
Thanks: 805 time(s)
Russian Federation


Содержит мдм/металкор. С одной стороны энергично и с хорошей скоростью под чистый вокал с довольно мягкой подачей, но всё это местами переплетается с гроулом, сбивками и прочими атрибутами чего-то более экстремального, типа мдм и металкора.


Thanks:
Go to the top of the page
  Insert nick Quick quote
+Quote Post

Reply to this topicStart new topic
1 User(s) are reading this topic (1 Guests and 0 Anonymous Users)
0 Members:

 



- Lo-Fi Version Support form
Copyrights and abuse reports form
Time is now: 24th June 2024 - 07:18:45