Welcome Guest ( Log In | Register )

Объявления

* gmail.com упорно продолжает считать почту с нас "unsolicited" и отбивает в том числе и письма активации, поэтому просьба использовать альтернативные почтовые ящики.
------------
* gmail.com continues reject all mail from us as "unsolicited" (activation mails too) therefore please use alternate mail servers.

> Releases Upload / Добавление релизов

Добавить релиз тут / Click here to add release
Рекомендованные обменники / Recommended file shares

 
Reply to this topicStart new topic
> Anebulah - Sacrophobia (2024), Black Metal
post May 17 2024, 13:39:45
Post #1

Правь статус, ####!111
**************
Group: Металариец
Posts: 9,084
Releases: 7319
On Forums: 13 years 6 months
Thanks: 128901 time(s)
Italy


(IMG:https://metalarea.org/images/audiocovers/2024_May/acov_tid397232_thumb.jpg)

*Artist: Anebulah
*Album: Sacrophobia
*Year: 2024
*Genre: Black Metal
*Country: Costa Rica (IMG:https://metalarea.org/forum/style_images/flags/Costa%20Rica.png)
*Format: mp3@CBR320kbps
*Size: 119MB

Tracklist:
1.Allegories of Blasphemy 07:16
2.Downfall to Dismal Silence 06:37
3.Through Shadows Benighted 05:19
4.Beholding the Choirs of the Holy 05:15
5.Sacrophobia (The Apostasy) 07:24
6.Traces of Spectral Divinity 07:19
7.Bleakness at Midwinter 05:12
8.Disdain from Centuries Forlorn 04:59
******************************
Total playing time: 49:21

(IMG:https://metalarea.org/images/youtube.png)
Preview 2


Technical info
(IMG:https://metalarea.org/images/spectrogram/2024_May/e81b33e826ede84ec33d554a9f75670e.png)
Input File: 7.Bleakness at Midwinter.mp3
Channels : 2
Sample Rate : 44100
Precision : 16-bit
Duration : 00:05:12.94 = 13800698 samples = 23470.6 CDDA sectors
File Size : 13.3M
Bit Rate : 341k
Sample Encoding: MPEG audio (layer I, II or III)
Comments :
Title=Bleakness at Midwinter
Artist=Anebulah
Album=Sacrophobia
Tracknumber=7/8
Year=2024
Discnumber=1/1



Register


Go to the top of the page
  Insert nick Quick quote
+Quote Post

Reply to this topicStart new topic
1 User(s) are reading this topic (1 Guests and 0 Anonymous Users)
0 Members:

 



- Lo-Fi Version Support form
Copyrights and abuse reports form
Time is now: 14th June 2024 - 08:10:47