Welcome Guest ( Log In | Register )

Объявления

* gmail.com упорно продолжает считать почту с нас "unsolicited" и отбивает в том числе и письма активации, поэтому просьба использовать альтернативные почтовые ящики.
------------
* gmail.com continues reject all mail from us as "unsolicited" (activation mails too) therefore please use alternate mail servers.

> И неформату есть предел.

Рэп/хип-хоп/шансон/поп удаляются. Для них есть свои порталы.

> Rope Sect - Enstrangement (2024), Deathrock
post May 19 2024, 14:36:54
Post #1

Правь статус, ####!111
**************
Group: Металариец
Posts: 36,231
Releases: 27013
From: Г.Харьков
On Forums: 12 years 1 month
Thanks: 587115 time(s)
Ukraine


(IMG:https://metalarea.org/images/audiocovers/2024_May/acov_tid397302_thumb.jpg)

*Artist: Rope Sect
*Album: Enstrangement
*Year: 2024
*Genre: Deathrock
*Country: Germany (IMG:https://metalarea.org/forum/style_images/flags/Germany.png)
*Format: mp3@CBR320kbps
*Size: 101MB

Tracklist:
1. Revel in Disguise 04:04
2. Cesspool of Vice 04:53
3. Nefelibatas 04:59
4. L'Appel Du Vide 06:41
5. Mementote 04:55
6. Massenmensch 04:42
7. Hindsight Bias 06:26
8. Rope of the Mundane Love 06:18
******************************
Total playing time: 42:58



Technical info
(IMG:https://metalarea.org/images/spectrogram/2024_May/7324b48937d673859e2757bbc9cb673f.png)
Input File: 07 - Hindsight Bias.mp3
Channels : 2
Sample Rate : 44100
Precision : 16-bit
Duration : 00:06:27.00 = 17066700 samples = 29025 CDDA sectors
File Size : 15.7M
Bit Rate : 326k
Sample Encoding: MPEG audio (layer I, II or III)
Comments :
Title=Hindsight Bias
Artist=Rope Sect
Album=Estrangement
Tracknumber=7
Year=2024-05-18
Genre=Alternative
Discnumber=1



Register


Go to the top of the page
  Insert nick Quick quote
+Quote Post
 
Start new topic
Replies (1 - 3)
post May 19 2024, 18:54:41
Post #2

Group: Подсевший
Posts: 39
Releases: 1
On Forums: 5 years 7 months
Thanks: 23 time(s)
Russian Federation


post-punk, gothic rock
Go to the top of the page
  Insert nick Quick quote
+Quote Post
post May 19 2024, 21:30:37
Post #3

Литр
*
Group: Подсевший
Posts: 69
Releases: 0
On Forums: 5 years 1 month
Thanks: 53 time(s)
Unknown


походу автор новости без понятия, что такое дезрок.
Go to the top of the page
  Insert nick Quick quote
+Quote Post
post Jun 10 2024, 11:11:46
Post #4

Четыре Литра
****
Group: Металариец
Posts: 309
Releases: 0
On Forums: 6 years 6 months
Thanks: 128 time(s)
Russian Federation


Вот такой пост-панк мне гораздо больше по душе. Чем-то напомнило финнов Beastmilk.
Go to the top of the page
  Insert nick Quick quote
+Quote Post

Reply to this topicStart new topic
1 User(s) are reading this topic (1 Guests and 0 Anonymous Users)
0 Members:

 



- Lo-Fi Version Support form
Copyrights and abuse reports form
Time is now: 23rd June 2024 - 02:15:00