Welcome Guest ( Log In | Register )

Объявления

* gmail.com упорно продолжает считать почту с нас "unsolicited" и отбивает в том числе и письма активации, поэтому просьба использовать альтернативные почтовые ящики.
------------
* gmail.com continues reject all mail from us as "unsolicited" (activation mails too) therefore please use alternate mail servers.

> И неформату есть предел.

Рэп/хип-хоп/шансон/поп удаляются. Для них есть свои порталы.

> Jasta - ...And Jasta For All (2024), Hardcore / Thrash Metal
post May 20 2024, 20:18:15
Post #1

21st Century Schizoid Man
**************
Group: Металариец
Posts: 8,512
Releases: 338
From: 1984
On Forums: 16 years 1 month
Thanks: 9593 time(s)
Unknown


(IMG:https://metalarea.org/images/audiocovers/2024_May/acov_tid397339_thumb.jpg)

*Artist: Jasta
*Album: ...And Jasta For All
*Year: 2024
*Genre: Hardcore / Thrash Metal
*Country: United States (IMG:https://metalarea.org/forum/style_images/flags/United%20States.png)
*Format: mp3@CBR320kbps
*Size: 84MB

Tracklist:
01. Jasta - They See Us as Prey (feat. Nick Petrino) 05:07
02. Jasta - Armor Your Mind 03:39
03. Jasta - Create the Now (feat. Chuck Billy) 03:45
04. Jasta - R.M.P.C (feat. Scott Ian of Anthrax) 02:57
05. Jasta - Suicidality (feat. Phil Demmel of Kerry King) 02:38
06. Jasta - Assimilation Agenda (feat. Steve "Zetro" Souza) 04:32
07. Jasta - Ring of Truth 03:32
08. Jasta - Terminal Lucidity 02:57
09. Jasta - No Dream Is Free 03:07
10. Jasta - The Phoenix Way 03:59
******************************
Total playing time: 36:13


(IMG:https://metalarea.org/images/youtube.png)

Technical info
(IMG:https://metalarea.org/images/spectrogram/2024_May/3bf53b3b2790bd8907a42d263d884050.png)
Input File: 01. They See Us as Prey.mp3
Channels : 2
Sample Rate : 48000
Precision : 16-bit
Duration : 00:05:06.80 = 14726160 samples ~ 23009.6 CDDA sectors
File Size : 12.4M
Bit Rate : 323k
Sample Encoding: MPEG audio (layer I, II or III)
Comments :
Title=They See Us as Prey
Artist=Jasta
Album=...and Jasta for All
Tracknumber=1
Year=2024
Genre=Hardcore



Register


Go to the top of the page
  Insert nick Quick quote
+Quote Post
 
Start new topic
Replies (1 - 6)
post May 21 2024, 08:54:59
Post #2

Семь Литров
*******
Group: Металариец
Posts: 702
Releases: 0
From: Ташкент
On Forums: 16 years 4 months
Thanks: 230 time(s)
Uzbekistan


Я бы не сказал, что это совсем уж хардкор. Очень много трэша и немножко дэта даже.
Go to the top of the page
  Insert nick Quick quote
+Quote Post
post May 21 2024, 09:05:28
Post #3

Trickster
Group Icon
Group: V.I.P
Posts: 6,578
Releases: 322
On Forums: 13 years 4 months
Thanks: 15274 time(s)
Russian Federation


JPV, Есть такое дело. Тут hardcore просто в таком, мета-смысле, как мне кажется. Он конечно есть, всё-таки прошлое Джасту так просто не отпустит, но в целом альбом ориентирован на такой коллаб кроссовер трэша и металкора из 90-ых, а также немного реально, даже полноценного трэш метала


Thanks:
(1) CRUNCH,
Go to the top of the page
  Insert nick Quick quote
+Quote Post
post May 21 2024, 12:16:44
Post #4

Два Литра
**
Group: Завсегдатай
Posts: 127
Releases: 0
On Forums: 6 years 7 months
Thanks: 122 time(s)
Unknown


я бы даже не сказал, что это неформат


Thanks:
(1) Larsuk,
Go to the top of the page
  Insert nick Quick quote
+Quote Post
post May 21 2024, 19:55:51
Post #5

Маньяк
**********
Group: Металариец
Posts: 1,058
Releases: 3
From: Украина
On Forums: 5 years 11 months
Thanks: 591 time(s)
Ukraine


ЦИТАТА(JPV @ May 21 2024, 10:54:59) *
Очень много трэша

Отлично!
Go to the top of the page
  Insert nick Quick quote
+Quote Post
post May 22 2024, 16:49:05
Post #6

Group: Подсевший
Posts: 32
Releases: 0
On Forums: 13 years 10 months
Thanks: 0 time(s)
Ukraine


ЦИТАТА(JPV @ 21st May 2024 - 10:54:59) *
Очень много трэша

Да, тем не менее альбом ето особо не спасает. Три трека самых коротких - самые удачные, все остальное затянутый порожняк.
Go to the top of the page
  Insert nick Quick quote
+Quote Post
post Jun 9 2024, 20:45:14
Post #7

Ледоруб
**************
Group: Металариец
Posts: 33,677
Releases: 0
From: Санкт-Петербург
On Forums: 14 years 9 months
Thanks: 11760 time(s)
Russian Federation


Спасибо, буду пырить!
Go to the top of the page
  Insert nick Quick quote
+Quote Post

Reply to this topicStart new topic
1 User(s) are reading this topic (1 Guests and 0 Anonymous Users)
0 Members:

 



- Lo-Fi Version Support form
Copyrights and abuse reports form
Time is now: 23rd June 2024 - 03:14:59