Welcome Guest ( Log In | Register )

Объявления

* gmail.com упорно продолжает считать почту с нас "unsolicited" и отбивает в том числе и письма активации, поэтому просьба использовать альтернативные почтовые ящики.
------------
* gmail.com continues reject all mail from us as "unsolicited" (activation mails too) therefore please use alternate mail servers.

> И неформату есть предел.

Рэп/хип-хоп/шансон/поп удаляются. Для них есть свои порталы.

 
Reply to this topicStart new topic
> The Enders - I (2018), Progressive Metal/Rock
post May 22 2024, 11:52:19
Post #1

21st Century Schizoid Man
**************
Group: Металариец
Posts: 8,512
Releases: 338
From: 1984
On Forums: 16 years 1 month
Thanks: 9593 time(s)
Unknown


(IMG:https://metalarea.org/images/audiocovers/2024_May/acov_tid397371_thumb.jpg)

*Artist: The Enders
*Album: I
*Year: 2018
*Genre: Progressive Metal/Rock
*Country: France (IMG:https://metalarea.org/forum/style_images/flags/France.png)
*Format: mp3@CBR320kbps
*Size: 147MB

Tracklist:
01. Stars 06:09
02. Feed The Flame 05:20
03. Full Throttle 04:42
04. Hands On Earth 07:07
05. On The Run 06:33
06. Things Have Changed 05:24
07. Real Pictures 03:51
08. Limitless 05:35
09. Maybe Stranger 04:39
10. Higher 04:15
11. When You're Gone 08:44
******************************
Total playing time: 1:02:19


(IMG:https://metalarea.org/images/youtube.png)
(IMG:https://metalarea.org/images/youtube.png)
(IMG:https://metalarea.org/images/youtube.png)
(IMG:https://metalarea.org/images/youtube.png)

Extended info
Pierre Brindjonc - Vocals
Olivier Viac - Guitars, Backing Vocals
Greg Giraudo - Guitars, Backing Vocals
Antoine Moutet - Bass
Laurent Ambard - Drums, Backing Vocals


Technical info
(IMG:https://metalarea.org/images/spectrogram/2024_May/fa0755de879c703116a924dd192871a2.png)
Input File: 01. Stars.mp3
Channels : 2
Sample Rate : 44100
Precision : 16-bit
Duration : 00:06:09.73 = 16305269 samples = 27730 CDDA sectors
File Size : 14.9M
Bit Rate : 321k
Sample Encoding: MPEG audio (layer I, II or III)
Comments :
Title=Stars
Artist=The Enders
Album=I
Tracknumber=1
Year=2018
Genre=Progressive Metal



Register


Go to the top of the page
  Insert nick Quick quote
+Quote Post

Reply to this topicStart new topic
1 User(s) are reading this topic (1 Guests and 0 Anonymous Users)
0 Members:

 



- Lo-Fi Version Support form
Copyrights and abuse reports form
Time is now: 23rd June 2024 - 01:37:55