Welcome Guest ( Log In | Register )

Объявления

* gmail.com упорно продолжает считать почту с нас "unsolicited" и отбивает в том числе и письма активации, поэтому просьба использовать альтернативные почтовые ящики.
------------
* gmail.com continues reject all mail from us as "unsolicited" (activation mails too) therefore please use alternate mail servers.
> Various Artists - Antichrist Magazine - A Tribute To Motorhead [compilation] (2022), Black/Death/Thrash Metal (D2346)
post May 22 2024, 13:58:27
Post #1

Два Литра
**
Group: Завсегдатай
Posts: 114
Releases: 16
On Forums: 15 years 5 months
Thanks: 257 time(s)
Russian Federation


(IMG:https://metalarea.org/images/audiocovers/2024_May/acov_tid397374_thumb.jpg)

*Artist: Various Artists
*Album: Antichrist Magazine - A Tribute To Motorhead [compilation]
*Year: 2022
*Genre: Black/Death/Thrash Metal
*Country: Many (IMG:https://metalarea.org/forum/style_images/flags/Many.png)
*Format: mp3@CBR192kbps
*Size: 150MB

Tracklist:
01. Myrholt (Norway) - Motorhead
02. WYV85 (Italy) - Iron Horse-Born to Lose
03. Somberwind (Chile) - No Class
04. Tides of Technocracy (USA) - Damage Case
05. Ironthorn (Italy) - Ace of Spades
06. Soul Collector (Poland) - (We Are) The Road Crew
07. Hateful Agony (Germany) - The Hammer
08. Sunless Sky (USA) - Iron Fist
09. Tyranno (Brazil) - Heart of Stone
10. Perfect Nme (Norway) - Dancing on Your Grave
11. Beltane (New Zealand) - Killed by Death
12. Wargoatcult (Spain) - Wargasmatron (Orgasmatron)
13. Serial Vice (Italy) - Rock 'n' Roll
14. Suck This Punch (Brazil) - Going to Brazil
15.- The Medea Project (UK) - Nightmare - The Dreamtime
16. Shadecrown (Finland) - Love Me Forever
17. Buaiteoir (Brazil) - 1916
18. Hammathaz (Brazil) - Bad Religion
19. Warshipper (Brazil) - Hellraiser
20. Mudd Flux (USA) - Born to Raise Hell
21. Gunjack (Italy) - Sacrifice
22. Naitaka (Canada) - Terminal Show
23. Odeum Deus (Sweden) - In the Name of Tragedy
24. Arched Fire (Finland) - Trigger
25. Skeleton Pit (Germany) - Runaround Man
26. Blood of Angels (USA) - Teach You How to Sing the Blues
27. Empire of Disease (Spain) - Rock Out
28. Wail (Norway) - Brotherhood of Man
29. Spectral Darkwave (UK) - Choking on Your Screams
******************************
Total playing time: 1:50:16

Technical info
(IMG:https://metalarea.org/images/spectrogram/2024_May/e93be7cd8279debed786d10efec6f7c0.png)
Input File: 05. Ironthorn - Ace of Spades.mp3
Channels : 2
Sample Rate : 44100
Precision : 16-bit
Duration : 00:02:59.93 = 7934781 samples = 13494.5 CDDA sectors
File Size : 4.32M
Bit Rate : 192k
Sample Encoding: MPEG audio (layer I, II or III)
Comments :
Title=Ace of Spades
Artist=Ironthorn
Album=Antichrist Magazine - A Tribute to Motorhead
Tracknumber=05/29
Year=2022
Genre=Metal



Register


Go to the top of the page
  Insert nick Quick quote
+Quote Post
 
Start new topic
Replies (1 - 1)
post May 22 2024, 15:39:10
Post #2

Два Литра
**
Group: Завсегдатай
Posts: 114
Releases: 16
On Forums: 15 years 5 months
Thanks: 257 time(s)
Russian Federation


ЦИТАТА(Carcharoth @ May 22 2024, 22:31:05) *
the link is offline!

fix


Thanks:
Go to the top of the page
  Insert nick Quick quote
+Quote Post

Reply to this topicStart new topic
2 User(s) are reading this topic (2 Guests and 0 Anonymous Users)
0 Members:

 



- Lo-Fi Version Support form
Copyrights and abuse reports form
Time is now: 17th June 2024 - 11:27:20