Welcome Guest ( Log In | Register )

Объявления

* gmail.com упорно продолжает считать почту с нас "unsolicited" и отбивает в том числе и письма активации, поэтому просьба использовать альтернативные почтовые ящики.
------------
* gmail.com continues reject all mail from us as "unsolicited" (activation mails too) therefore please use alternate mail servers.

> Releases Upload / Добавление релизов

Добавить релиз тут / Click here to add release
Рекомендованные обменники / Recommended file shares

> Demon Bell - Steel Sorcery [ep] (2016), Thrash/Speed/Black Metal
post May 22 2024, 15:47:18
Post #1

Два Литра
**
Group: Завсегдатай
Posts: 114
Releases: 16
On Forums: 15 years 5 months
Thanks: 258 time(s)
Russian Federation


(IMG:https://metalarea.org/images/audiocovers/2024_May/acov_tid397381_thumb.jpg)

*Artist: Demon Bell
*Album: Steel Sorcery [ep]
*Year: 2016
*Genre: Thrash/Speed/Black Metal
*Country: Italy (IMG:https://metalarea.org/forum/style_images/flags/Italy.png)
*Format: aac@VBR283kbps
*Size: 37MB

Tracklist:
1. Satanic Steel Rapist 03:52
2. Arrival of the Hangman 04:14
3. Bombing Hellfire 03:26
4. Demon Bell 04:22
5. Triumph of Evil (Bewitched cover) 02:25
******************************
Total playing time: 18:19

Technical info
(IMG:https://metalarea.org/images/spectrogram/2024_May/2cc0fb37436d8c7c3029dbd5ad040393.png)
Input File: 01. Satanic Steel Rapist (2).wav
Channels : 2
Sample Rate : 44100
Precision : 16-bit
Duration : 00:00:04.45 = 196175 samples = 333.631 CDDA sectors
File Size : 785k
Bit Rate : 1.41M
Sample Encoding: 16-bit Signed Integer PCM



Register


Go to the top of the page
  Insert nick Quick quote
+Quote Post
 
Start new topic
Replies (1 - 3)
post May 22 2024, 18:35:26
Post #2

Шесть Литров
******
Group: Металариец
Posts: 594
Releases: 21
From: Подольск
On Forums: 15 years 2 weeks
Thanks: 951 time(s)
Russian Federation


Youtube


Thanks:
(1) lldma,
Go to the top of the page
  Insert nick Quick quote
+Quote Post
post May 22 2024, 19:24:04
Post #3

_ - = # Thrashogolic # = - _ ... а давайте поржём все вместе
**************
Group: Металариец
Posts: 22,642
Releases: 4444
From: 404
On Forums: 14 years 5 days
Thanks: 29275 time(s)
Ukraine


Олд-скульно

Ждём от релизёра "Evoked & Menacing" '2017-го до пары)

наверное, маскот:
(IMG:https://f4.bcbits.com/img/0010954481_9.jpg)


Thanks:
(2) Evrom, Wail,
Go to the top of the page
  Insert nick Quick quote
+Quote Post
post May 23 2024, 11:00:15
Post #4

Два Литра
**
Group: Завсегдатай
Posts: 114
Releases: 16
On Forums: 15 years 5 months
Thanks: 258 time(s)
Russian Federation


ЦИТАТА(Genuine Thrashiac @ May 23 2024, 02:24:04) *
Ждём от релизёра "Evoked & Menacing" '2017-го до пары)

Demon Bell - Evoked & Menacing [ep] (2017)


Thanks:
Go to the top of the page
  Insert nick Quick quote
+Quote Post

Reply to this topicStart new topic
1 User(s) are reading this topic (1 Guests and 0 Anonymous Users)
0 Members:

 



- Lo-Fi Version Support form
Copyrights and abuse reports form
Time is now: 20th June 2024 - 17:41:48