Welcome Guest ( Log In | Register )

Объявления

* gmail.com упорно продолжает считать почту с нас "unsolicited" и отбивает в том числе и письма активации, поэтому просьба использовать альтернативные почтовые ящики.
------------
* gmail.com continues reject all mail from us as "unsolicited" (activation mails too) therefore please use alternate mail servers.

> Releases Upload / Добавление релизов

Добавить релиз тут / Click here to add release
Рекомендованные обменники / Recommended file shares

> Witchnight - Unholy Speed Metal [ep] (2017), Speed/Black Metal
post May 22 2024, 16:10:29
Post #1

Два Литра
**
Group: Завсегдатай
Posts: 114
Releases: 16
On Forums: 15 years 5 months
Thanks: 258 time(s)
Russian Federation


(IMG:https://metalarea.org/images/audiocovers/2024_May/acov_tid397382_thumb.jpg)

*Artist: Witchnight
*Album: Unholy Speed Metal [ep]
*Year: 2017
*Genre: Speed/Black Metal
*Country: Argentina (IMG:https://metalarea.org/forum/style_images/flags/Argentina.png)
*Format: aac@VBR263kbps
*Size: 27MB

Tracklist:
1. Witch's Night 03:49
2. Die by the Blade 02:56
3. Slut of Hell 03:15
4. Planificando la muerte (RetroSatan cover) 05:02
******************************
Total playing time: 15:02

Technical info
(IMG:https://metalarea.org/images/spectrogram/2024_May/568ed4f686ef062988df9e0500eae119.png)
Input File: 02. Die by the Blade (2).wav
Channels : 2
Sample Rate : 44100
Precision : 16-bit
Duration : 00:00:01.99 = 87558 samples = 148.908 CDDA sectors
File Size : 350k
Bit Rate : 1.41M
Sample Encoding: 16-bit Signed Integer PCM



Register


Go to the top of the page
  Insert nick Quick quote
+Quote Post
 
Start new topic
Replies (1 - 1)
post May 23 2024, 09:36:13
Post #2

Правь статус, ####!111
**************
Group: Металариец
Posts: 2,723
Releases: 425
From: Bretagne
On Forums: 16 years 1 month
Thanks: 5269 time(s)
France


thanks! excelent old school and rough speed/black (if you like old Venom etc) (IMG:style_emoticons/default/true_black.gif)

full EP preview + bonus tracks from singles :


Thanks:
(1) Wail,
Go to the top of the page
  Insert nick Quick quote
+Quote Post

Reply to this topicStart new topic
2 User(s) are reading this topic (2 Guests and 0 Anonymous Users)
0 Members:

 



- Lo-Fi Version Support form
Copyrights and abuse reports form
Time is now: 20th June 2024 - 16:58:58