Welcome Guest ( Log In | Register )

Объявления

* gmail.com упорно продолжает считать почту с нас "unsolicited" и отбивает в том числе и письма активации, поэтому просьба использовать альтернативные почтовые ящики.
------------
* gmail.com continues reject all mail from us as "unsolicited" (activation mails too) therefore please use alternate mail servers.
> Lucifuge - Hexensabbat (2024), Black/Speed Metal (D10)
post May 23 2024, 11:45:52
Post #1

Правь статус, ####!111
**************
Group: Металариец
Posts: 36,460
Releases: 27188
From: Г.Харьков
On Forums: 12 years 2 months
Thanks: 592716 time(s)
Ukraine


(IMG:https://metalarea.org/images/audiocovers/2024_May/acov_tid397414_thumb.jpg)

*Artist: Lucifuge
*Album: Hexensabbat
*Year: 2024
*Genre: Black/Speed Metal
*Country: Germany (IMG:https://metalarea.org/forum/style_images/flags/Germany.png)
*Format: mp3@CBR320kbps
*Size: 95MB

Tracklist:
1. Gates of the Eternal Night 03:52
2. Enter the Realms of Death 02:49
3. The Court of the Profane 05:42
4. No Sun Shall Rise 03:28
5. Into Eternal Sleep 04:46
6. The Sign of Cain 03:21
7. An Oath of Blood and Fire 03:17
8. Enter the Realms of Death 04:17
9. They Come in Legions 04:00
10. Cursed to Eternity 05:06
******************************
Total playing time: 40:38



Extended info
FLAC-Rip
Equinox Vocals, Guitars, Keyboards, Bass, Drums (2016-2020), Vocals, Guitars, Songwriting (2016-present)


Technical info
(IMG:https://metalarea.org/images/spectrogram/2024_May/60d4bc68fe258720f24d682311b5c57e.png)
Input File: 10 - Cursed to Eternity.mp3
Channels : 2
Sample Rate : 44100
Precision : 16-bit
Duration : 00:05:06.00 = 13494600 samples = 22950 CDDA sectors
File Size : 12.5M
Bit Rate : 327k
Sample Encoding: MPEG audio (layer I, II or III)
Comments :
Title=Cursed to Eternity
Artist=LuciFuge
Album=Hexensabbat
Tracknumber=10
Year=2024-05-24
Genre=Metal
Discnumber=1



Register


Go to the top of the page
  Insert nick Quick quote
+Quote Post
 
Start new topic
Replies (1 - 3)
post May 24 2024, 09:02:24
Post #2

Правь статус, ####!111
**************
Group: Металариец
Posts: 2,895
Releases: 428
From: Bretagne
On Forums: 16 years 2 months
Thanks: 5394 time(s)
France


thanks!! excelent old school black/speed (IMG:style_emoticons/default/metaler.gif)

full album preview on band's page


Go to the top of the page
  Insert nick Quick quote
+Quote Post
post Jul 10 2024, 09:57:20
Post #3

Мегаманьяк
***********
Group: Металариец
Posts: 1,910
Releases: 26
From: Москва
On Forums: 16 years 3 months
Thanks: 1363 time(s)
Antarctica


Хрен знает где у вас тут блэк. Чистая веномовщина, только чутка более современная. Спидовый хэви или как-то так наверно.
Go to the top of the page
  Insert nick Quick quote
+Quote Post
post Jul 10 2024, 10:43:07
Post #4

Group: Дух
Posts: 5
Releases: 0
From: Донецк
On Forums: 2 months 1 week
Thanks: 1 time(s)
Russian Federation


Не хватает 11-го трека - The Destruction of the Sword (IMG:style_emoticons/default/6.gif)


Thanks:
(1) Occultas,
Go to the top of the page
  Insert nick Quick quote
+Quote Post

Reply to this topicStart new topic
2 User(s) are reading this topic (2 Guests and 0 Anonymous Users)
0 Members:

 



- Lo-Fi Version Support form
Copyrights and abuse reports form
Time is now: 24th July 2024 - 09:41:46