Welcome Guest ( Log In | Register )

Объявления

* gmail.com упорно продолжает считать почту с нас "unsolicited" и отбивает в том числе и письма активации, поэтому просьба использовать альтернативные почтовые ящики.
------------
* gmail.com continues reject all mail from us as "unsolicited" (activation mails too) therefore please use alternate mail servers.

> И неформату есть предел.

Рэп/хип-хоп/шансон/поп удаляются. Для них есть свои порталы.

 
Reply to this topicStart new topic
> Moment Of Revelation - Touch The Depths Inside (2024), Progressive Rock/Metal
post May 23 2024, 21:39:29
Post #1

21st Century Schizoid Man
**************
Group: Металариец
Posts: 8,512
Releases: 338
From: 1984
On Forums: 16 years 1 month
Thanks: 9593 time(s)
Unknown


(IMG:https://metalarea.org/images/audiocovers/2024_May/acov_tid397459_thumb.jpg)

*Artist: Moment Of Revelation
*Album: Touch The Depths Inside
*Year: 2024
*Genre: Progressive Rock/Metal
*Country: Czech Republic (IMG:https://metalarea.org/forum/style_images/flags/Czech%20Republic.png)
*Format: mp3@CBR320kbps
*Size: 190MB

Tracklist:
01. Encounter 00:35
02. Straitjacket - I. In Wake Of Restless Ache 04:58
03. Straitjacket - II. Feeling Cold In The Air 04:11
04. Here And Now 07:26
05. Tired Wreck 04:05
06. Numb, Deep In, Afraid 09:49
07. In Blurred Vision 01:53
08. In Times Of Recalling 11:12
09. Fragments 02:08
10. Touch The Depths Inside - I. Ready For Change 01:17
11. Touch The Depths Inside - II. Thousands Of Threats 01:34
12. Touch The Depths Inside - III. Freedom Call 04:34
13. Touch The Depths Inside - IV. Sometimes You Win, Sometimes You Learn 05:06
14. Touch The Depths Inside - V. Exposure - Beginning Of Long Voyage 06:54
15. Touch The Depths Inside - VI. Mindfulness 07:07
16. Touch The Depths Inside - VII. Touch The Depths Inside 03:07
17. Touch The Depths Inside - VIII. Union 04:50
******************************
Total playing time: 1:20:46

(IMG:https://metalarea.org/images/youtube.png)

Extended info
Honza Kapák - Drums / Percussion (2, 3, 4, 5, 6, 8, 10, 11, 12, 13, 14, 16, 17)
Jiří Pecka - Bass (2, 3, 4, 5, 6, 8, 10, 11, 12, 14, 16, 17)
Johnny Vavruška - Keys (5, 8, 12, 17), Sound Effects (1, 2, 17), Vocals (14, 17), Hand claps (6)
Katarina Vassova - Hand claps (6)
Ivan Boreš - Classical Guitar (8), Fretless Electric Guitar (8, 13)
Josef Pilný - Trumpets (11, 12, 13, 17)
Libor Čech - Trombone (2, 11, 12, 13, 17)
Tereza Mrázová - Vocals (14, 17), Hand claps (6)
Jakub Neuman - Electric and Acoustic Guitars (2, 3, 4, 6, 8, 10, 11, 12, 13, 14, 15, 16, 17), Bass (7), Vocals (2, 3, 4, 5, 6, 8, 10, 11, 12, 14, 16, 17), Sound Effects / Synths / Keys / 808 Drims (1, 2, 3, 4, 5, 6, 8, 9, 10, 11, 12, 13, 14, 15, 16, 17), Percussion (2, 4, 6, 8, 14, 17)


Technical info
(IMG:https://metalarea.org/images/spectrogram/2024_May/0efc406d72f9627927f07bfce06c5851.png)
Input File: 01. Encounter.mp3
Channels : 2
Sample Rate : 44100
Precision : 16-bit
Duration : 00:00:35.27 = 1555407 samples = 2645.25 CDDA sectors
File Size : 1.63M
Bit Rate : 370k
Sample Encoding: MPEG audio (layer I, II or III)
Comments :
Title=Encounter
Artist=Moment Of Revelation
Album=Touch The Depths Inside
Tracknumber=1
Year=2024
Genre=Progressive Metal | Rock



Register


Go to the top of the page
  Insert nick Quick quote
+Quote Post

Reply to this topicStart new topic
1 User(s) are reading this topic (1 Guests and 0 Anonymous Users)
0 Members:

 



- Lo-Fi Version Support form
Copyrights and abuse reports form
Time is now: 23rd June 2024 - 03:49:53