Welcome Guest ( Log In | Register )

Объявления

* gmail.com упорно продолжает считать почту с нас "unsolicited" и отбивает в том числе и письма активации, поэтому просьба использовать альтернативные почтовые ящики.
------------
* gmail.com continues reject all mail from us as "unsolicited" (activation mails too) therefore please use alternate mail servers.

> Releases Upload / Добавление релизов

Добавить релиз тут / Click here to add release
Рекомендованные обменники / Recommended file shares

> Forelunar - Wine And The Limerent [ep] (2018), Atmospheric/Post-Black Metal (D5)
post May 24 2024, 14:35:49
Post #1

Два Литра
**
Group: Завсегдатай
Posts: 139
Releases: 17
On Forums: 15 years 6 months
Thanks: 329 time(s)
Russian Federation


(IMG:https://metalarea.org/images/audiocovers/2024_May/acov_tid397488_thumb.jpg)

*Artist: Forelunar
*Album: Wine And The Limerent [ep]
*Year: 2018
*Genre: Atmospheric/Post-Black Metal
*Country: Iran (IMG:https://metalarea.org/forum/style_images/flags/Iran.png)
*Format: mp3@CBR320kbps
*Size: 46MB

Tracklist:
1. Lunar Wine 09:37
2. Ephemeral Light 10:32
******************************
Total playing time: 20:09

Extended info


Technical info
(IMG:https://metalarea.org/images/spectrogram/2024_May/27f5a60ae608b6f29e4289d6287e3055.png)
Input File: 01 Lunar Wine - sample.mp3
Channels : 2
Sample Rate : 44100
Precision : 16-bit
Duration : 00:00:20.06 = 884778 samples = 1504.72 CDDA sectors
File Size : 802k
Bit Rate : 320k
Sample Encoding: MPEG audio (layer I, II or III)



Register


Go to the top of the page
  Insert nick Quick quote
+Quote Post
 
Start new topic
Replies (1 - 2)
post May 25 2024, 03:50:49
Post #2

Литр
*
Group: Подсевший
Posts: 88
Releases: 0
From: Mexico
On Forums: 16 years 9 months
Thanks: 9 time(s)
Mexico


QUOTE(Vasiliy09 @ May 24 2024, 08:35:49) *
https://metalarea.org/images/audiocovers/20...97488_thumb.jpg

*Artist: Forelunar
*Album: Wine And The Limerent [ep]
*Year: 2018
*Genre: Atmospheric/Post-Black Metal
*Country: Iran https://metalarea.org/forum/style_images/flags/Iran.png
*Format: mp3@CBR320kbps
*Size: 46MB

Tracklist:
1. Lunar Wine 09:37
2. Ephemeral Light 10:32
******************************
Total playing time: 20:09

Extended info


Technical info
https://metalarea.org/images/spectrogram/20...9d6287e3055.png
Input File: 01 Lunar Wine - sample.mp3
Channels : 2
Sample Rate : 44100
Precision : 16-bit
Duration : 00:00:20.06 = 884778 samples = 1504.72 CDDA sectors
File Size : 802k
Bit Rate : 320k
Sample Encoding: MPEG audio (layer I, II or III)






It's good to see you again.

Thanks bro :-)

(IMG:style_emoticons/default/9.gif)

(IMG:style_emoticons/default/pray.gif)
Go to the top of the page
  Insert nick Quick quote
+Quote Post
post May 29 2024, 18:43:08
Post #3

Group: Подсевший
Posts: 37
Releases: 0
From: Tehran
On Forums: 12 years 11 months
Thanks: 3 time(s)
Unknown


Go to the top of the page
  Insert nick Quick quote
+Quote Post

Reply to this topicStart new topic
1 User(s) are reading this topic (1 Guests and 0 Anonymous Users)
0 Members:

 



- Lo-Fi Version Support form
Copyrights and abuse reports form
Time is now: 14th July 2024 - 14:11:32