Welcome Guest ( Log In | Register )

Объявления

* gmail.com упорно продолжает считать почту с нас "unsolicited" и отбивает в том числе и письма активации, поэтому просьба использовать альтернативные почтовые ящики.
------------
* gmail.com continues reject all mail from us as "unsolicited" (activation mails too) therefore please use alternate mail servers.

> И неформату есть предел.

Рэп/хип-хоп/шансон/поп удаляются. Для них есть свои порталы.

> Deep Purple - Portable Door [single] (2024), Hard Rock (D34)
post May 25 2024, 13:52:13
Post #1

Правь статус, ####!111
**************
Group: Металариец
Posts: 56,165
Releases: 1213
On Forums: 15 years 3 weeks
Thanks: 55117 time(s)
Russian Federation


(IMG:https://metalarea.org/images/audiocovers/2024_May/acov_tid397538_thumb.jpg)

*Artist: Deep Purple
*Album: Portable Door [single]
*Year: 2024
*Genre: Hard Rock
*Country: United Kingdom (IMG:https://metalarea.org/forum/style_images/flags/United%20Kingdom.png)
*Format: mp3@CBR320kbps
*Size: 9MB

Tracklist:
1. Portable Door 03:48
******************************
Total playing time: 3:48

Technical info
(IMG:https://metalarea.org/images/spectrogram/2024_May/22144ec093d982052b9bd031f2e494d7.png)
Input File: 01 Portable Door.mp3
Channels : 2
Sample Rate : 44100
Precision : 16-bit
Duration : 00:03:48.11 = 10059783 samples = 17108.5 CDDA sectors
File Size : 9.12M
Bit Rate : 320k
Sample Encoding: MPEG audio (layer I, II or III)



Register


Go to the top of the page
  Insert nick Quick quote
+Quote Post
 
Start new topic
Replies (1 - 6)
post May 25 2024, 18:14:45
Post #2

Правь статус, ####!111
**************
Group: Металариец
Posts: 56,165
Releases: 1213
On Forums: 15 years 3 weeks
Thanks: 55117 time(s)
Russian Federation


Так се песенка, мелодия не особо запоминающаяся, равно как и запевания Гиллана, но вот что понравилось и даже очень - соло нового гитариста, да клавишные поливания.

Как бы то ни было, альбом ждём. Прошлый ведь был очень и очень крут.
Go to the top of the page
  Insert nick Quick quote
+Quote Post
post May 25 2024, 18:29:15
Post #3

Дежурный по межполовым вопросам
**************
Group: Металариец
Posts: 4,003
Releases: 3
From: Yaroslavl
On Forums: 7 years 9 months
Thanks: 2631 time(s)
Northern Mariana Islands


Отличный трек.
Грувистый и качовый.
Гиллан поет в силу своих возрастных возможностей.
Альбом жду.
Go to the top of the page
  Insert nick Quick quote
+Quote Post
post May 25 2024, 19:24:34
Post #4

Ретроград
**************
Group: Металариец
Posts: 5,490
Releases: 213
On Forums: 17 years 5 days
Thanks: 9413 time(s)
Vatican City


Судя по формату обложки - планировался кассетный релиз?


Thanks:
Go to the top of the page
  Insert nick Quick quote
+Quote Post
post May 26 2024, 08:59:16
Post #5

मृत्यु
**************
Group: Металариец
Posts: 3,611
Releases: 24
On Forums: 13 years 11 months
Thanks: 2363 time(s)
Antarctica


Гиллан похож на Билла Мюррея. (IMG:style_emoticons/default/crazy.gif)


Go to the top of the page
  Insert nick Quick quote
+Quote Post
post May 26 2024, 14:28:47
Post #6

Правь статус, ####!111
**************
Group: Металариец
Posts: 2,072
Releases: 452
On Forums: 5 years 4 months
Thanks: 6440 time(s)
Canada


pretty smooth
it's ok, and has the Deep Purple song writing formula, but is lacking something
That guitar solo is awesome though.
Go to the top of the page
  Insert nick Quick quote
+Quote Post
post May 27 2024, 14:36:27
Post #7

Правь статус, ####!111
**************
Group: Металариец
Posts: 56,165
Releases: 1213
On Forums: 15 years 3 weeks
Thanks: 55117 time(s)
Russian Federation


На обложки таких групп-грандов как ДП внимание уже обращаешь в последнюю очередь - главное качественное музлишко седьмой десяток лет подряд. И в последнем пункте группа не обламывает. (IMG:style_emoticons/default/smile1.gif)
Go to the top of the page
  Insert nick Quick quote
+Quote Post

Reply to this topicStart new topic
1 User(s) are reading this topic (1 Guests and 0 Anonymous Users)
0 Members:

 



- Lo-Fi Version Support form
Copyrights and abuse reports form
Time is now: 23rd June 2024 - 03:46:58