Welcome Guest ( Log In | Register )

Объявления

* gmail.com упорно продолжает считать почту с нас "unsolicited" и отбивает в том числе и письма активации, поэтому просьба использовать альтернативные почтовые ящики.
------------
* gmail.com continues reject all mail from us as "unsolicited" (activation mails too) therefore please use alternate mail servers.

> Releases Upload / Добавление релизов

Добавить релиз тут / Click here to add release
Рекомендованные обменники / Recommended file shares

> Vemma - Demo [demo] (2024), Goregrind/Death Metal
post Jun 4 2024, 20:31:52
Post #1

Мегаманьяк
***********
Group: Металариец
Posts: 1,945
Releases: 711
From: Саранск
On Forums: 13 years 1 month
Thanks: 7531 time(s)
Russian Federation


(IMG:https://metalarea.org/images/audiocovers/2024_Jun/acov_tid397912_thumb.jpg)

*Artist: Vemma
*Album: Demo [demo]
*Year: 2024
*Genre: Goregrind/Death Metal
*Country: Latvia (IMG:https://metalarea.org/forum/style_images/flags/Latvia.png)
*Format: mp3@CBR320kbps
*Size: 28MB

Tracklist:
1. Mežu Sēja 02:13
2. Trifeles Divas Puses 02:06
3. Vāverojot 02:54
4. Sirdsdēsti 01:55
5. Princis 01:57
******************************
Total playing time: 11:05



Technical info
(IMG:https://metalarea.org/images/spectrogram/2024_Jun/58c6dcd686ce6aa5dc185f7968f69383.png)
Input File: 01. Mežu Sēja.mp3
Channels : 2
Sample Rate : 44100
Precision : 16-bit
Duration : 00:02:13.57 = 5890481 samples = 10017.8 CDDA sectors
File Size : 5.81M
Bit Rate : 348k
Sample Encoding: MPEG audio (layer I, II or III)
Comments :
Title=Mežu Sēja
Artist=Vemma
Album=Demo
Tracknumber=01
Year=2024
Genre=Brutal Death



Register


Thanks:
Go to the top of the page
  Insert nick Quick quote
+Quote Post
 
Start new topic
Replies (1 - 2)
post Jun 6 2024, 11:46:34
Post #2

Два Литра
**
Group: Завсегдатай
Posts: 164
Releases: 1
On Forums: 12 years 6 months
Thanks: 81 time(s)
Latvia


Not a Goregrind, just Grind or ''grind n lol roll".
Go to the top of the page
  Insert nick Quick quote
+Quote Post
post Jun 11 2024, 11:27:15
Post #3

Мегаманьяк
***********
Group: Металариец
Posts: 1,945
Releases: 711
From: Саранск
On Forums: 13 years 1 month
Thanks: 7531 time(s)
Russian Federation


ЦИТАТА(BladeOvDarkness @ Jun 6 2024, 13:46:34) *
Not a Goregrind, just Grind or ''grind n lol roll".

ne pizdi


Thanks:
Go to the top of the page
  Insert nick Quick quote
+Quote Post

Reply to this topicStart new topic
2 User(s) are reading this topic (2 Guests and 0 Anonymous Users)
0 Members:

 



- Lo-Fi Version Support form
Copyrights and abuse reports form
Time is now: 23rd June 2024 - 03:44:56