Welcome Guest ( Log In | Register )

Объявления

* gmail.com упорно продолжает считать почту с нас "unsolicited" и отбивает в том числе и письма активации, поэтому просьба использовать альтернативные почтовые ящики.
------------
* gmail.com continues reject all mail from us as "unsolicited" (activation mails too) therefore please use alternate mail servers.

> Releases Upload / Добавление релизов

Добавить релиз тут / Click here to add release
Рекомендованные обменники / Recommended file shares

> Ravenbolt - Dark Medieval Blood (2024), Raw Black Metal
post Jun 9 2024, 09:39:56
Post #1

Правь статус, ####!111
**************
Group: Металариец
Posts: 2,754
Releases: 2266
From: Praha
On Forums: 10 years 2 months
Thanks: 63952 time(s)
Czech Republic


(IMG:https://metalarea.org/images/audiocovers/2024_Jun/acov_tid398149_thumb.jpg)

*Artist: Ravenbolt
*Album: Dark Medieval Blood
*Year: 2024
*Genre: Raw Black Metal
*Country: United States (IMG:https://metalarea.org/forum/style_images/flags/United%20States.png)
*Format: mp3@CBR320kbps
*Size: 74MB

Tracklist:
1. Dark Medieval Blood 03:48
2. Fire In Winter Night 03:56
3. In Raven Shadow 04:17
4. Endless War Forever 03:58
5. Burn With Hatred 04:46
6. 1162 AD 01:29
7. Deep In Forest Spell 04:29
8. Memory Of Battle 04:12
******************************
Total playing time: 30:55



Extended info
Nithstang Productions.


Technical info
(IMG:https://metalarea.org/images/spectrogram/2024_Jun/1da8c311b041293a7e6b4462aa0b38ee.png)
Input File: 02. Fire In Winter Night.mp3
Channels : 2
Sample Rate : 44100
Precision : 16-bit
Duration : 00:03:56.40 = 10425152 samples = 17729.9 CDDA sectors
File Size : 9.68M
Bit Rate : 328k
Sample Encoding: MPEG audio (layer I, II or III)
Comments :
Title=Fire In Winter Night
Artist=Ravenbolt
Album=Dark Medieval Blood
Tracknumber=02/08
Year=2024
Genre=Black Metal



Register


Go to the top of the page
  Insert nick Quick quote
+Quote Post
 
Start new topic
Replies (1 - 5)
post Jun 10 2024, 18:14:51
Post #2

Четыре Литра
****
Group: Металариец
Posts: 386
Releases: 0
On Forums: 14 years 6 months
Thanks: 147 time(s)
Russian Federation


Правильный звук, старый добрый бм без зауми.
Go to the top of the page
  Insert nick Quick quote
+Quote Post
post Jun 10 2024, 20:59:10
Post #3

Два Литра
**
Group: Завсегдатай
Posts: 104
Releases: 0
From: Львів
On Forums: 11 years 8 months
Thanks: 105 time(s)
Ukraine


Доналдь Дак на вокале, драм машина и возможно даже vst гитара. Duck Medieval Blood
Go to the top of the page
  Insert nick Quick quote
+Quote Post
post Jun 10 2024, 21:58:54
Post #4

Cultist
**************
Group: Металариец
Posts: 4,703
Releases: 1338
From: Koenigsberg
On Forums: 17 years 5 months
Thanks: 9646 time(s)
Russian Federation


Кто прав из этих беспонтовых достопочтенных джентльменов?
Go to the top of the page
  Insert nick Quick quote
+Quote Post
post Jun 11 2024, 06:19:43
Post #5

Четыре Литра
****
Group: Металариец
Posts: 390
Releases: 5
From: Самара
On Forums: 15 years 9 months
Thanks: 359 time(s)
Russian Federation


ЦИТАТА(TDM @ Jun 11 2024, 00:58:54) *
Кто прав из этих беспонтовых достопочтенных джентльменов?


второй)
Go to the top of the page
  Insert nick Quick quote
+Quote Post
post Jun 11 2024, 11:28:30
Post #6

Мегаманьяк
***********
Group: Металариец
Posts: 1,904
Releases: 26
From: Москва
On Forums: 16 years 2 months
Thanks: 1353 time(s)
Antarctica


Посредственность, даже хуже. Пыль.
Go to the top of the page
  Insert nick Quick quote
+Quote Post

Reply to this topicStart new topic
2 User(s) are reading this topic (2 Guests and 0 Anonymous Users)
0 Members:

 



- Lo-Fi Version Support form
Copyrights and abuse reports form
Time is now: 23rd June 2024 - 01:48:23