Welcome Guest ( Log In | Register )

Объявления

* gmail.com упорно продолжает считать почту с нас "unsolicited" и отбивает в том числе и письма активации, поэтому просьба использовать альтернативные почтовые ящики.
------------
* gmail.com continues reject all mail from us as "unsolicited" (activation mails too) therefore please use alternate mail servers.

> Releases Upload / Добавление релизов

Добавить релиз тут / Click here to add release
Рекомендованные обменники / Recommended file shares

> Crowheart - Misanthropy & Nature (2024), Melodic Symphonic Death Metal (D4)
post Jun 9 2024, 13:13:35
Post #1

Время Мары
**************
Group: Металариец
Posts: 3,704
Releases: 685
From: Харьков
On Forums: 15 years 1 month
Thanks: 14259 time(s)
Ukraine


(IMG:https://metalarea.org/images/audiocovers/2024_Jun/acov_tid398153_thumb.jpg)

*Artist: Crowheart
*Album: Misanthropy & Nature
*Year: 2024
*Genre: Melodic Symphonic Death Metal
*Country: Austria (IMG:https://metalarea.org/forum/style_images/flags/Austria.png)
*Format: mp3@CBR320kbps
*Size: 108MB

Tracklist:
01. Apotheosis 05:55
02. Capitalism 06:05
03. Depression 09:19
04. Friendship 05:52
05. Media 05:08
06. Politics 05:47
07. Summer Fading 08:10
******************************
Total playing time: 46:16

Technical info
(IMG:https://metalarea.org/images/spectrogram/2024_Jun/64cfbf8cf5c45f575ea342aa066727e1.png)
Input File: 07 - Summer Fading.mp3
Channels : 2
Sample Rate : 44100
Precision : 16-bit
Duration : 00:08:10.71 = 21640355 samples = 36803.3 CDDA sectors
File Size : 19.7M
Bit Rate : 321k
Sample Encoding: MPEG audio (layer I, II or III)
Comments :
Title=Summer Fading
Artist=Crowheart
Album=Misanthropy & Nature
Tracknumber=7/7
Year=2024
Genre=9
Discnumber=1/1



Register


Go to the top of the page
  Insert nick Quick quote
+Quote Post
 
Start new topic
Replies (1 - 1)
post Jun 10 2024, 17:40:06
Post #2

Мегаманьяк
***********
Group: Металариец
Posts: 1,844
Releases: 0
From: Russian Federation - St.Petersburg
On Forums: 15 years 4 months
Thanks: 528 time(s)
Russian Federation


https://www.youtube.com/watch?v=YIcY7eVZWJI



Thanks:
(1) Andrew,
Go to the top of the page
  Insert nick Quick quote
+Quote Post

Reply to this topicStart new topic
1 User(s) are reading this topic (1 Guests and 0 Anonymous Users)
0 Members:

 



- Lo-Fi Version Support form
Copyrights and abuse reports form
Time is now: 19th July 2024 - 12:27:31