Welcome Guest ( Log In | Register )

Объявления

* gmail.com упорно продолжает считать почту с нас "unsolicited" и отбивает в том числе и письма активации, поэтому просьба использовать альтернативные почтовые ящики.
------------
* gmail.com continues reject all mail from us as "unsolicited" (activation mails too) therefore please use alternate mail servers.

> Releases Upload / Добавление релизов

Добавить релиз тут / Click here to add release
Рекомендованные обменники / Recommended file shares

 
Reply to this topicStart new topic
> Ensomhet - The Fall Of Yggdrasill [ep] (2024), Black Metal
post Jun 10 2024, 00:39:41
Post #1

Правь статус, ####!111
**************
Group: Металариец
Posts: 9,103
Releases: 7339
On Forums: 13 years 6 months
Thanks: 129260 time(s)
Italy


(IMG:https://metalarea.org/images/audiocovers/2024_Jun/acov_tid398174_thumb.jpg)

*Artist: Ensomhet
*Album: The Fall Of Yggdrasill [ep]
*Year: 2024
*Genre: Black Metal
*Country: France (IMG:https://metalarea.org/forum/style_images/flags/France.png)
*Format: mp3@CBR320kbps
*Size: 39MB

Tracklist:
1.Fimbulvetr 02:22
2.Ragnarok 01:28
3.The Fall of Yggdrasill 05:18
4.After The Storm 07:16
******************************
Total playing time: 16:24



Technical info
(IMG:https://metalarea.org/images/spectrogram/2024_Jun/a49c4bb5c4985faea7c54a422f9e4c30.png)
Input File: 3.The Fall of Yggdrasill.mp3
Channels : 2
Sample Rate : 44100
Precision : 16-bit
Duration : 00:05:18.82 = 14059918 samples = 23911.4 CDDA sectors
File Size : 13.3M
Bit Rate : 333k
Sample Encoding: MPEG audio (layer I, II or III)
Comments :
Title=The Fall of Yggdrasill
Artist=Ensomhet
Album=The Fall of Yggdrasill
Tracknumber=3/4
Year=2024
Discnumber=1/1



Register


Go to the top of the page
  Insert nick Quick quote
+Quote Post

Reply to this topicStart new topic
1 User(s) are reading this topic (1 Guests and 0 Anonymous Users)
0 Members:

 



- Lo-Fi Version Support form
Copyrights and abuse reports form
Time is now: 17th June 2024 - 23:52:54