Welcome Guest ( Log In | Register )

Объявления

* gmail.com упорно продолжает считать почту с нас "unsolicited" и отбивает в том числе и письма активации, поэтому просьба использовать альтернативные почтовые ящики.
------------
* gmail.com continues reject all mail from us as "unsolicited" (activation mails too) therefore please use alternate mail servers.

> Releases Upload / Добавление релизов

Добавить релиз тут / Click here to add release
Рекомендованные обменники / Recommended file shares

 
Reply to this topicStart new topic
> Nenavist - Raw Symphony Of Evil Vol. 2 (2024), Atmospheric/Depressive Black Metal/Ambient (D4)
post Jun 10 2024, 06:22:42
Post #1

Правь статус, ####!111
**************
Group: Металариец
Posts: 9,103
Releases: 7339
On Forums: 13 years 6 months
Thanks: 129261 time(s)
Italy


(IMG:https://metalarea.org/images/audiocovers/2024_Jun/acov_tid398177_thumb.jpg)

*Artist: Nenavist
*Album: Raw Symphony Of Evil Vol. 2
*Year: 2024
*Genre: Atmospheric/Depressive Black Metal/Ambient
*Country: Brazil (IMG:https://metalarea.org/forum/style_images/flags/Brazil.png)
*Format: mp3@CBR320kbps
*Size: 74MB

Tracklist:
1.Intro 01:59
2.I Still Have Glimpses of the Color Red in my Heart 02:34
3.Teen Suicide 02:07
4.Saddest Transylvania 04:00
5.Triste Satan 03:59
6.Wrists Slit with a Scythe 04:18
7.Clonazepam 02:11
8.Covered Sun 03:59
9.Santa Maria del Fiore 01:59
10.End 02:37
******************************
Total playing time: 29:43

Technical info
(IMG:https://metalarea.org/images/spectrogram/2024_Jun/8aad9f0ce1e7ad9f9142b3fc0471b17c.png)
Input File: 3.Teen Suicide.mp3
Channels : 2
Sample Rate : 44100
Precision : 16-bit
Duration : 00:02:07.36 = 5616444 samples = 9551.78 CDDA sectors
File Size : 5.76M
Bit Rate : 362k
Sample Encoding: MPEG audio (layer I, II or III)
Comments :
Title=Teen Suicide
Artist=Nenavist
Album=Raw Symphony of Evil vol. 2
Tracknumber=3/10
Year=2024
Discnumber=1/1



Register


Go to the top of the page
  Insert nick Quick quote
+Quote Post

Reply to this topicStart new topic
1 User(s) are reading this topic (1 Guests and 0 Anonymous Users)
0 Members:

 



- Lo-Fi Version Support form
Copyrights and abuse reports form
Time is now: 18th June 2024 - 00:32:15