Welcome Guest ( Log In | Register )

Объявления

* gmail.com упорно продолжает считать почту с нас "unsolicited" и отбивает в том числе и письма активации, поэтому просьба использовать альтернативные почтовые ящики.
------------
* gmail.com continues reject all mail from us as "unsolicited" (activation mails too) therefore please use alternate mail servers.

> Releases Upload / Добавление релизов

Добавить релиз тут / Click here to add release
Рекомендованные обменники / Recommended file shares

> Tordner - Når Skogen Mørkner (2024), Black Metal
post Jun 10 2024, 07:05:24
Post #1

Правь статус, ####!111
**************
Group: Металариец
Posts: 9,103
Releases: 7339
On Forums: 13 years 6 months
Thanks: 129261 time(s)
Italy


(IMG:https://metalarea.org/images/audiocovers/2024_Jun/acov_tid398178_thumb.jpg)

*Artist: Tordner
*Album: Når Skogen Mørkner
*Year: 2024
*Genre: Black Metal
*Country: Norway (IMG:https://metalarea.org/forum/style_images/flags/Norway.png)
*Format: mp3@CBR320kbps
*Size: 72MB

Tracklist:
1.Et livløst landskap 06:52
2.Helsvart 04:25
3.Hvile 06:56
4.Langt vekk 06:32
5.Fanga 07:07
******************************
Total playing time: 31:52



Technical info
(IMG:https://metalarea.org/images/spectrogram/2024_Jun/07db927dc491cc9e871a02ca6aa7c33a.png)
Input File: 2.Helsvart.mp3
Channels : 2
Sample Rate : 44100
Precision : 16-bit
Duration : 00:04:25.58 = 11711990 samples = 19918.4 CDDA sectors
File Size : 10.7M
Bit Rate : 324k
Sample Encoding: MPEG audio (layer I, II or III)
Comments :
Title=Helsvart
Artist=Tordner
Album=Når skogen mørkner
Tracknumber=2/5
Year=2024
Discnumber=1/1



Register


Go to the top of the page
  Insert nick Quick quote
+Quote Post
 
Start new topic
Replies (1 - 1)
post Jun 10 2024, 15:46:44
Post #2

Black Death Grind Madness
*******
Group: Металариец
Posts: 742
Releases: 0
From: Cassilandia
On Forums: 15 years 11 months
Thanks: 92 time(s)
Brazil


Amazing Raw from Nor
Flac possible? (IMG:style_emoticons/default/metaler.gif)


Thanks:
Go to the top of the page
  Insert nick Quick quote
+Quote Post

Reply to this topicStart new topic
1 User(s) are reading this topic (1 Guests and 0 Anonymous Users)
0 Members:

 



- Lo-Fi Version Support form
Copyrights and abuse reports form
Time is now: 18th June 2024 - 00:51:35