Welcome Guest ( Log In | Register )

Объявления

* gmail.com упорно продолжает считать почту с нас "unsolicited" и отбивает в том числе и письма активации, поэтому просьба использовать альтернативные почтовые ящики.
------------
* gmail.com continues reject all mail from us as "unsolicited" (activation mails too) therefore please use alternate mail servers.

> Releases Upload / Добавление релизов

Добавить релиз тут / Click here to add release
Рекомендованные обменники / Recommended file shares

 
Reply to this topicStart new topic
> Almucantarat - Constellations [ep] (2024), Atmospheric Black Metal
post Jun 10 2024, 08:13:50
Post #1

Правь статус, ####!111
**************
Group: Металариец
Posts: 9,143
Releases: 7378
On Forums: 13 years 7 months
Thanks: 129917 time(s)
Italy


(IMG:https://metalarea.org/images/audiocovers/2024_Jun/acov_tid398181_thumb.jpg)

*Artist: Almucantarat
*Album: Constellations [ep]
*Year: 2024
*Genre: Atmospheric Black Metal
*Country: Russian Federation (IMG:https://metalarea.org/forum/style_images/flags/Russian%20Federation.png)
*Format: mp3@CBR320kbps
*Size: 41MB

Tracklist:
1.In The Blessed Breath of Night 05:50
2.The Theologist 05:05
3.The Sea of Trees 06:06
******************************
Total playing time: 17:01



Technical info
(IMG:https://metalarea.org/images/spectrogram/2024_Jun/8373ecc73a782dadfaf96f7bd1bb95ea.png)
Input File: 1.In the Blessed Breath of Night.mp3
Channels : 2
Sample Rate : 44100
Precision : 16-bit
Duration : 00:05:50.85 = 15472353 samples = 26313.5 CDDA sectors
File Size : 14.6M
Bit Rate : 333k
Sample Encoding: MPEG audio (layer I, II or III)
Comments :
Title=In the Blessed Breath of Night
Artist=Almucantarat
Album=Constellations
Tracknumber=1/3
Year=2024
Discnumber=1/1



Register


Go to the top of the page
  Insert nick Quick quote
+Quote Post

Reply to this topicStart new topic
1 User(s) are reading this topic (1 Guests and 0 Anonymous Users)
0 Members:

 



- Lo-Fi Version Support form
Copyrights and abuse reports form
Time is now: 23rd June 2024 - 02:47:22