Welcome Guest ( Log In | Register )

Объявления

* gmail.com упорно продолжает считать почту с нас "unsolicited" и отбивает в том числе и письма активации, поэтому просьба использовать альтернативные почтовые ящики.
------------
* gmail.com continues reject all mail from us as "unsolicited" (activation mails too) therefore please use alternate mail servers.

> Releases Upload / Добавление релизов

Добавить релиз тут / Click here to add release
Рекомендованные обменники / Recommended file shares

> Tortharry - Paměť Kamenů (2024), Death Metal (D)
post Jun 10 2024, 09:34:04
Post #1

Правь статус, ####!111
**************
Group: Металариец
Posts: 9,103
Releases: 7339
On Forums: 13 years 6 months
Thanks: 129261 time(s)
Italy


(IMG:https://metalarea.org/images/audiocovers/2024_Jun/acov_tid398183_thumb.jpg)

*Artist: Tortharry
*Album: Paměť Kamenů
*Year: 2024
*Genre: Death Metal
*Country: Czech Republic (IMG:https://metalarea.org/forum/style_images/flags/Czech%20Republic.png)
*Format: mp3@CBR320kbps
*Size: 97MB

Tracklist:
01.Pohreb nadeje 06:06
02.Horke rozlouceni 04:11
03.Odpocinek 04:51
04.Pamatecni 03:25
05.Ozveny staleti 04:11
06.Smirci kameny 04:39
07.Ohen na svazich 04:29
08.Temny udel 05:06
09.Strazci nenavisti 03:49
******************************
Total playing time: 40:47


(IMG:https://metalarea.org/images/youtube.png)

Technical info
(IMG:https://metalarea.org/images/spectrogram/2024_Jun/f21b51d050324a95752fdb4e064f8dab.png)
Input File: 2.Hořké rozloučení.mp3
Channels : 2
Sample Rate : 44100
Precision : 16-bit
Duration : 00:04:11.08 = 11072584 samples = 18830.9 CDDA sectors
File Size : 10.5M
Bit Rate : 334k
Sample Encoding: MPEG audio (layer I, II or III)
Comments :
Title=Hořké rozloučení
Artist=Tortharry
Album=Paměť kamenů
Tracknumber=2/9
Year=2024
Discnumber=1/1



Register


Go to the top of the page
  Insert nick Quick quote
+Quote Post
 
Start new topic
Replies (1 - 1)
post Jun 10 2024, 14:54:47
Post #2

·
********
Group: Металариец
Posts: 828
Releases: 108
From: dp.ua
On Forums: 15 years 10 months
Thanks: 3205 time(s)
Ukraine


Ты торт, Гарри.
Go to the top of the page
  Insert nick Quick quote
+Quote Post

Reply to this topicStart new topic
1 User(s) are reading this topic (1 Guests and 0 Anonymous Users)
0 Members:

 



- Lo-Fi Version Support form
Copyrights and abuse reports form
Time is now: 18th June 2024 - 01:01:07