Welcome Guest ( Log In | Register )

Объявления

* gmail.com упорно продолжает считать почту с нас "unsolicited" и отбивает в том числе и письма активации, поэтому просьба использовать альтернативные почтовые ящики.
------------
* gmail.com continues reject all mail from us as "unsolicited" (activation mails too) therefore please use alternate mail servers.

> Releases Upload / Добавление релизов

Добавить релиз тут / Click here to add release
Рекомендованные обменники / Recommended file shares

 
Reply to this topicStart new topic
> Royal Rage - Evolve (2024), Thrash Metal
post Jun 10 2024, 11:12:42
Post #1

Правь статус, ####!111
**************
Group: Металариец
Posts: 36,231
Releases: 27013
From: Г.Харьков
On Forums: 12 years 1 month
Thanks: 587119 time(s)
Ukraine


(IMG:https://metalarea.org/images/audiocovers/2024_Jun/acov_tid398184_thumb.jpg)

*Artist: Royal Rage
*Album: Evolve
*Year: 2024
*Genre: Thrash Metal
*Country: Brazil (IMG:https://metalarea.org/forum/style_images/flags/Brazil.png)
*Format: mp3@CBR320kbps
*Size: 128MB

Tracklist:
1. Dawn of a New Era
2. Evolve
3. Into the Abyss
4. Virtual Hell
5. Cheap Addiction
6. Eyes of Glass
7. Khan
8. Bloodlust
9. Lampião
10. Real Dolls
11. Disease and Decadence
12. Your Brain Will Fall
13. Seize the Pain
******************************
Total playing time: 55:15



Extended info
Thiago Rodrigues Drums
See also: Choke, Legacy of Kain
Sol Perez Guitars
See also: Icon of Sin, ex-Semblant, ex-Vulture of Corpse
Airton Senna Vocals (backing), Bass
Pedro Ferreira Vocals (lead), Guitars (2010-present)


Technical info
(IMG:https://metalarea.org/images/spectrogram/2024_Jun/9a6ab1490987b64cfb1c53d5d6bd9936.png)
Input File: 10 - Real Dolls.mp3
Channels : 2
Sample Rate : 44100
Precision : 16-bit
Duration : 00:04:38.00 = 12259800 samples = 20850 CDDA sectors
File Size : 11.2M
Bit Rate : 324k
Sample Encoding: MPEG audio (layer I, II or III)
Comments :
Title=Real Dolls
Artist=Royal Rage
Album=Evolve
Tracknumber=10
Year=2024-06-11
Genre=Metal
Discnumber=1



Register


Go to the top of the page
  Insert nick Quick quote
+Quote Post

Reply to this topicStart new topic
1 User(s) are reading this topic (1 Guests and 0 Anonymous Users)
0 Members:

 



- Lo-Fi Version Support form
Copyrights and abuse reports form
Time is now: 23rd June 2024 - 03:32:47