Welcome Guest ( Log In | Register )

Объявления

* gmail.com упорно продолжает считать почту с нас "unsolicited" и отбивает в том числе и письма активации, поэтому просьба использовать альтернативные почтовые ящики.
------------
* gmail.com continues reject all mail from us as "unsolicited" (activation mails too) therefore please use alternate mail servers.

> Releases Upload / Добавление релизов

Добавить релиз тут / Click here to add release
Рекомендованные обменники / Recommended file shares

 
Reply to this topicStart new topic
> Wurgilnõ - Krijtland (2024), Black Metal
post Jun 10 2024, 11:40:10
Post #1

Правь статус, ####!111
**************
Group: Металариец
Posts: 36,179
Releases: 26973
From: Г.Харьков
On Forums: 12 years 1 month
Thanks: 586082 time(s)
Ukraine


(IMG:https://metalarea.org/images/audiocovers/2024_Jun/acov_tid398185_thumb.jpg)

*Artist: Wurgilnõ
*Album: Krijtland
*Year: 2024
*Genre: Black Metal
*Country: Netherlands (IMG:https://metalarea.org/forum/style_images/flags/Netherlands.png)
*Format: mp3@CBR320kbps
*Size: 124MB

Tracklist:
1. Kop op het blok 05:59
2. De lijdensweg van Entgen Luijten 05:38
3. Voor de eeuwigheid gehangen 06:22
4. 1928 05:58
5. De nachtdwaalster 05:23
6. Het Wilde Heir 04:36
7. De pest 06:08
8. Krijtland 13:20
******************************
Total playing time: 53:24



Extended info
C. Everything (2023-present)
See also: Corpusculum, Inverted Pentagram, Mergelland, O Uffern, The Curse of Yig, ex-Vluum, ex-Belphegor, Atalanta Fugiens


Technical info
(IMG:https://metalarea.org/images/spectrogram/2024_Jun/937b2cf04d4088eedef5eac091f4ca20.png)
Input File: 07 - De Pest.mp3
Channels : 2
Sample Rate : 44100
Precision : 16-bit
Duration : 00:06:08.00 = 16228800 samples = 27600 CDDA sectors
File Size : 14.9M
Bit Rate : 325k
Sample Encoding: MPEG audio (layer I, II or III)
Comments :
Title=De Pest
Artist=Wurgilnõ
Album=Krijtland
Tracknumber=7
Year=2024-06-11
Genre=Metal
Discnumber=1



Register


Go to the top of the page
  Insert nick Quick quote
+Quote Post

Reply to this topicStart new topic
1 User(s) are reading this topic (1 Guests and 0 Anonymous Users)
0 Members:

 



- Lo-Fi Version Support form
Copyrights and abuse reports form
Time is now: 18th June 2024 - 01:27:50