Welcome Guest ( Log In | Register )

Объявления

* gmail.com упорно продолжает считать почту с нас "unsolicited" и отбивает в том числе и письма активации, поэтому просьба использовать альтернативные почтовые ящики.
------------
* gmail.com continues reject all mail from us as "unsolicited" (activation mails too) therefore please use alternate mail servers.

> Releases Upload / Добавление релизов

Добавить релиз тут / Click here to add release
Рекомендованные обменники / Recommended file shares

 
Reply to this topicStart new topic
> Rise From Your Grave - Tales Of Terror (2024), Thrash Metal/Horror Punk
post Jun 10 2024, 11:45:48
Post #1

Правь статус, ####!111
**************
Group: Металариец
Posts: 9,103
Releases: 7339
On Forums: 13 years 6 months
Thanks: 129260 time(s)
Italy


(IMG:https://metalarea.org/images/audiocovers/2024_Jun/acov_tid398186_thumb.jpg)

*Artist: Rise From Your Grave
*Album: Tales Of Terror
*Year: 2024
*Genre: Thrash Metal/Horror Punk
*Country: United States (IMG:https://metalarea.org/forum/style_images/flags/United%20States.png)
*Format: mp3@CBR320kbps
*Size: 85MB

Tracklist:
1.Ghosts In the Graveyard Feat. Jason Payne 03:18
2.Where Darkness Sleeps 04:17
3.The King In Yellow 02:18
4.In Love With Evil 04:54
5.Phantom of Flatwoods 04:35
6.Run, There's Robots! 03:55
7.WendiGo-Go 03:38
8.The Twilight Zone 04:05
9.Ghosts In The Graveyard (Reprise) 05:25
******************************
Total playing time: 36:25



Technical info
(IMG:https://metalarea.org/images/spectrogram/2024_Jun/5d1cff45bf03342344a54741af2d0d30.png)
Input File: 1.Ghosts In The Graveyard (feat. Jason Payne).mp3
Channels : 2
Sample Rate : 44100
Precision : 16-bit
Duration : 00:03:18.54 = 8755790 samples = 14890.8 CDDA sectors
File Size : 8.23M
Bit Rate : 331k
Sample Encoding: MPEG audio (layer I, II or III)
Comments :
Title=Ghosts In The Graveyard (feat. Jason Payne)
Artist=Rise From Your Grave
Album=Tales of Terror
Tracknumber=1/9
Year=2024
Discnumber=1/1



Register


Go to the top of the page
  Insert nick Quick quote
+Quote Post

Reply to this topicStart new topic
1 User(s) are reading this topic (1 Guests and 0 Anonymous Users)
0 Members:

 



- Lo-Fi Version Support form
Copyrights and abuse reports form
Time is now: 17th June 2024 - 23:14:47