Welcome Guest ( Log In | Register )

Объявления

* gmail.com упорно продолжает считать почту с нас "unsolicited" и отбивает в том числе и письма активации, поэтому просьба использовать альтернативные почтовые ящики.
------------
* gmail.com continues reject all mail from us as "unsolicited" (activation mails too) therefore please use alternate mail servers.

> Releases Upload / Добавление релизов

Добавить релиз тут / Click here to add release
Рекомендованные обменники / Recommended file shares

 
Reply to this topicStart new topic
> Secrets Of Silence - Satan's Arrival [ep] (2022), Black/Thrash Metal
post Jun 10 2024, 13:59:00
Post #1

Маньяк
**********
Group: Металариец
Posts: 1,082
Releases: 306
On Forums: 5 years 1 month
Thanks: 5241 time(s)
Russian Federation


(IMG:https://metalarea.org/images/audiocovers/2024_Jun/acov_tid398187_thumb.jpg)

*Artist: Secrets Of Silence
*Album: Satan's Arrival [ep]
*Year: 2022
*Genre: Black/Thrash Metal
*Country: India (IMG:https://metalarea.org/forum/style_images/flags/India.png)
*Format: mp3@CBR320kbps
*Size: 42MB

Tracklist:
1. Into the Inferno 02:51
2. Chaos in Hell 02:06
3. Accepting Evil 03:14
4. Satan's Arrival 03:40
5. Blood Raven in Heaven 03:56
******************************
Total playing time: 15:47



(IMG:https://metalarea.org/images/youtube.png)



Technical info
(IMG:https://metalarea.org/images/spectrogram/2024_Jun/d782f2050a8941fa1310ff1a73071ede.png)
Input File: MASTERS OF KAOS - SECRETS OF SILENCE (INDIA) SATAN\'S ARRIVAL EP - 02 CHAOS IN HELL.mp3
Channels : 2
Sample Rate : 44100
Precision : 16-bit
Duration : 00:02:06.10 = 5561010 samples = 9457.5 CDDA sectors
File Size : 5.31M
Bit Rate : 337k
Sample Encoding: MPEG audio (layer I, II or III)
Comments :
Title=CHAOS IN HELL
Artist=MASTERS OF KAOS
Album=SECRETS OF SILENCE (INDIA) SATAN'S ARRIVAL EP
Tracknumber=2
Year=2022



Register


Go to the top of the page
  Insert nick Quick quote
+Quote Post

Reply to this topicStart new topic
1 User(s) are reading this topic (1 Guests and 0 Anonymous Users)
0 Members:

 



- Lo-Fi Version Support form
Copyrights and abuse reports form
Time is now: 23rd June 2024 - 01:51:29