Welcome Guest ( Log In | Register )

Объявления

* gmail.com упорно продолжает считать почту с нас "unsolicited" и отбивает в том числе и письма активации, поэтому просьба использовать альтернативные почтовые ящики.
------------
* gmail.com continues reject all mail from us as "unsolicited" (activation mails too) therefore please use alternate mail servers.

> Releases Upload / Добавление релизов

Добавить релиз тут / Click here to add release
Рекомендованные обменники / Recommended file shares

 
Reply to this topicStart new topic
> Miguel Troncoso - Miath Dagda (2021), Heavy/Power Metal
post Jun 10 2024, 15:13:01
Post #1

Serial Uploader
Group Icon
Group: V.I.P
Posts: 42,805
Releases: 40868
From: Lithuania
On Forums: 16 years 2 weeks
Thanks: 524471 time(s)
Lithuania


(IMG:https://metalarea.org/images/audiocovers/2024_Jun/acov_tid398188_thumb.jpg)

*Artist: Miguel Troncoso
*Album: Miath Dagda
*Year: 2021
*Genre: Heavy/Power Metal
*Country: Chile (IMG:https://metalarea.org/forum/style_images/flags/Chile.png)
*Format: mp3@CBR320kbps
*Size: 99MB

Tracklist:
1. Persiguiendo Al Destino 04:16
2. Alma Guerrera 03:53
3. Castigo, En Su Traición 04:36
4. Campeón De Su Lealtad 04:04
5. Malleus Maleficarum 06:50
6. Triste Tu Final 03:28
7. La Oscuridad De Tu Ser 03:00
8. Escapar De La Fe 02:56
9. Dagda 04:12
10. Aquel Lugar De Mi Vida 05:25
******************************
Total playing time: 42:40

(IMG:https://metalarea.org/images/youtube.png)

Technical info
(IMG:https://metalarea.org/images/spectrogram/2024_Jun/e6922fb04cbc2510844dfa32a72ffaec.png)
Input File: 02 - Alma Guerrera.mp3
Channels : 2
Sample Rate : 44100
Precision : 16-bit
Duration : 00:03:53.00 = 10275300 samples = 17475 CDDA sectors
File Size : 9.45M
Bit Rate : 325k
Sample Encoding: MPEG audio (layer I, II or III)
Comments :
Title=Alma Guerrera
Artist=Miguel Troncoso
Album=Miath Dagda
Tracknumber=2
Year=2021-07-21
Genre=Alternative
Discnumber=1



Register


Go to the top of the page
  Insert nick Quick quote
+Quote Post

Reply to this topicStart new topic
1 User(s) are reading this topic (1 Guests and 0 Anonymous Users)
0 Members:

 



- Lo-Fi Version Support form
Copyrights and abuse reports form
Time is now: 23rd June 2024 - 02:05:09