Welcome Guest ( Log In | Register )

Объявления

* gmail.com упорно продолжает считать почту с нас "unsolicited" и отбивает в том числе и письма активации, поэтому просьба использовать альтернативные почтовые ящики.
------------
* gmail.com continues reject all mail from us as "unsolicited" (activation mails too) therefore please use alternate mail servers.

> Releases Upload / Добавление релизов

Добавить релиз тут / Click here to add release
Рекомендованные обменники / Recommended file shares

 
Reply to this topicStart new topic
> Dozethrone - Among The Grieving (2020), Instrumental Sludge/Doom Metal (D8)
post Jun 10 2024, 15:21:09
Post #1

Serial Uploader
Group Icon
Group: V.I.P
Posts: 42,805
Releases: 40868
From: Lithuania
On Forums: 16 years 2 weeks
Thanks: 524472 time(s)
Lithuania


(IMG:https://metalarea.org/images/audiocovers/2024_Jun/acov_tid398189_thumb.png)

*Artist: Dozethrone
*Album: Among The Grieving
*Year: 2020
*Genre: Instrumental Sludge/Doom Metal
*Country: Singapore (IMG:https://metalarea.org/forum/style_images/flags/Singapore.png)
*Format: mp3@CBR320kbps
*Size: 70MB

Tracklist:
1. Among The Grieving 10:30
2. Symptoms Of The Infection 10:02
3. Life In Confinement 10:10
******************************
Total playing time: 30:42



(IMG:https://metalarea.org/images/youtube.png)

Technical info
(IMG:https://metalarea.org/images/spectrogram/2024_Jun/9585624c8802bcc7a550f60424a0d74b.png)
Input File: Dozethrone - Among The Grieving - 02 Symptoms Of The Infection.mp3
Channels : 2
Sample Rate : 44100
Precision : 16-bit
Duration : 00:10:02.21 = 26557373 samples = 45165.6 CDDA sectors
File Size : 24.4M
Bit Rate : 325k
Sample Encoding: MPEG audio (layer I, II or III)
Comments :
Title=Symptoms Of The Infection
Artist=Dozethrone
Album=Among The Grieving
Tracknumber=2
Year=2020



Register


Thanks:
Go to the top of the page
  Insert nick Quick quote
+Quote Post

Reply to this topicStart new topic
1 User(s) are reading this topic (1 Guests and 0 Anonymous Users)
0 Members:

 



- Lo-Fi Version Support form
Copyrights and abuse reports form
Time is now: 23rd June 2024 - 02:21:53