Welcome Guest ( Log In | Register )

Объявления

* gmail.com упорно продолжает считать почту с нас "unsolicited" и отбивает в том числе и письма активации, поэтому просьба использовать альтернативные почтовые ящики.
------------
* gmail.com continues reject all mail from us as "unsolicited" (activation mails too) therefore please use alternate mail servers.

> Releases Upload / Добавление релизов

Добавить релиз тут / Click here to add release
Рекомендованные обменники / Recommended file shares

> Тоска - Б​у​р​я (2024), Atmospheric Black Metal
post Jun 10 2024, 15:40:14
Post #1

Правь статус, 616
**************
Group: Металариец
Posts: 10,827
Releases: 8818
From: 55°35’N 38°08’E
On Forums: 15 years 11 months
Thanks: 156965 time(s)
Russian Federation


(IMG:https://metalarea.org/images/audiocovers/2024_Jun/acov_tid398191_thumb.jpg)

*Artist: Тоска
*Album: Б​у​р​я
*Year: 2024
*Genre: Atmospheric Black Metal
*Country: United States (IMG:https://metalarea.org/forum/style_images/flags/United%20States.png)
*Format: mp3@CBR320kbps
*Size: 116MB

Tracklist:
1.The Storm Quakes the Night 05:25
2.Whirlwind of the Cosmic Halls 08:57
3.A Sacrifice For Strength 07:39
4.The Hammer Strikes the Strings of Life 03:13
5.Exploration of the Mind 10:04
6.The Spirit of Summer Eludes Me 09:46
7.Авось 04:58
******************************
Total playing time: 50:02



Technical info
(IMG:https://metalarea.org/images/spectrogram/2024_Jun/c967a41248b8952940c19912eb45aa4b.png)
Input File: 03 A Sacrifice for Strength.mp3
Channels : 2
Sample Rate : 44100
Precision : 16-bit
Duration : 00:07:39.29 = 20254557 samples = 34446.5 CDDA sectors
File Size : 18.5M
Bit Rate : 322k
Sample Encoding: MPEG audio (layer I, II or III)
Comments :
Title=A Sacrifice for Strength
Artist=Тоска
Album=Буря
Tracknumber=3/7
Year=2024
Genre=Black Metal
Discnumber=1/1



Register


Go to the top of the page
  Insert nick Quick quote
+Quote Post
 
Start new topic
Replies (1 - 2)
post Jun 11 2024, 09:23:01
Post #2

Правь статус, ####!111
**************
Group: Металариец
Posts: 2,701
Releases: 425
From: Bretagne
On Forums: 16 years 1 month
Thanks: 5262 time(s)
France


atmospheric/pagan black metal with ambient moments, and some old Burzum influences (IMG:style_emoticons/default/20.gif)
Go to the top of the page
  Insert nick Quick quote
+Quote Post
post Jun 11 2024, 12:41:30
Post #3

Два Литра
**
Group: Завсегдатай
Posts: 120
Releases: 0
On Forums: 14 years 2 weeks
Thanks: 20 time(s)
Russian Federation


Занесло славянина в Пендосию
Go to the top of the page
  Insert nick Quick quote
+Quote Post

Reply to this topicStart new topic
1 User(s) are reading this topic (1 Guests and 0 Anonymous Users)
0 Members:

 



- Lo-Fi Version Support form
Copyrights and abuse reports form
Time is now: 17th June 2024 - 23:20:23