Welcome Guest ( Log In | Register )

Объявления

* gmail.com упорно продолжает считать почту с нас "unsolicited" и отбивает в том числе и письма активации, поэтому просьба использовать альтернативные почтовые ящики.
------------
* gmail.com continues reject all mail from us as "unsolicited" (activation mails too) therefore please use alternate mail servers.

> Releases Upload / Добавление релизов

Добавить релиз тут / Click here to add release
Рекомендованные обменники / Recommended file shares

 
Reply to this topicStart new topic
> Molocchio - Keeper Of The Scepter [demo] (2024), Black Metal
post Jun 10 2024, 16:10:21
Post #1

Правь статус, 616
**************
Group: Металариец
Posts: 10,827
Releases: 8818
From: 55°35’N 38°08’E
On Forums: 15 years 11 months
Thanks: 156965 time(s)
Russian Federation


(IMG:https://metalarea.org/images/audiocovers/2024_Jun/acov_tid398192_thumb.jpg)

*Artist: Molocchio
*Album: Keeper Of The Scepter [demo]
*Year: 2024
*Genre: Black Metal
*Country: United States (IMG:https://metalarea.org/forum/style_images/flags/United%20States.png)
*Format: mp3@CBR320kbps
*Size: 67MB

Tracklist:
1.Infinite Visions Of The Crystal Mountain 05:36
2.Where Demons Leer 05:21
3.I Burn The Lamp Forevermore 01:40
4.Condemned To An Eternal Vigil 05:20
5.Through The Eyes Of A Spirit 02:23
6.Keeper Of The Scepter 07:55
******************************
Total playing time: 28:15



Technical info
(IMG:https://metalarea.org/images/spectrogram/2024_Jun/7d6a53f90021a8cdb7ea877ce43539a6.png)
Input File: 02 Where Demons Leer.mp3
Channels : 2
Sample Rate : 44100
Precision : 16-bit
Duration : 00:05:21.25 = 14167037 samples = 24093.6 CDDA sectors
File Size : 13.1M
Bit Rate : 326k
Sample Encoding: MPEG audio (layer I, II or III)
Comments :
Title=Where Demons Leer
Artist=Molocchio
Album=Keeper Of The Scepter
Tracknumber=2
Year=2024
Genre=Black Metal



Register


Go to the top of the page
  Insert nick Quick quote
+Quote Post

Reply to this topicStart new topic
1 User(s) are reading this topic (1 Guests and 0 Anonymous Users)
0 Members:

 



- Lo-Fi Version Support form
Copyrights and abuse reports form
Time is now: 17th June 2024 - 23:38:15