Welcome Guest ( Log In | Register )

Объявления

* gmail.com упорно продолжает считать почту с нас "unsolicited" и отбивает в том числе и письма активации, поэтому просьба использовать альтернативные почтовые ящики.
------------
* gmail.com continues reject all mail from us as "unsolicited" (activation mails too) therefore please use alternate mail servers.

> Releases Upload / Добавление релизов

Добавить релиз тут / Click here to add release
Рекомендованные обменники / Recommended file shares

 
Reply to this topicStart new topic
> Isathurs - Unbound [ep] (2024), Atmospheric Black Metal
post Jun 10 2024, 16:27:58
Post #1

Правь статус, 616
**************
Group: Металариец
Posts: 10,827
Releases: 8818
From: 55°35’N 38°08’E
On Forums: 15 years 11 months
Thanks: 156965 time(s)
Russian Federation


(IMG:https://metalarea.org/images/audiocovers/2024_Jun/acov_tid398193_thumb.jpg)

*Artist: Isathurs
*Album: Unbound [ep]
*Year: 2024
*Genre: Atmospheric Black Metal
*Country: Netherlands (IMG:https://metalarea.org/forum/style_images/flags/Netherlands.png)
*Format: mp3@CBR320kbps
*Size: 27MB

Tracklist:
1. The Serpent's World 06:51
2. At the Helm of Death 04:45
******************************
Total playing time: 11:36




Technical info
(IMG:https://metalarea.org/images/spectrogram/2024_Jun/afc5c76d440c066d916363f4d59cb2d4.png)
Input File: 02 At the helm of death.mp3
Channels : 2
Sample Rate : 44100
Precision : 16-bit
Duration : 00:04:45.15 = 12574895 samples = 21385.9 CDDA sectors
File Size : 11.5M
Bit Rate : 322k
Sample Encoding: MPEG audio (layer I, II or III)
Comments :
Title=At the helm of death
Artist=Isathurs
Album=Unbound
Tracknumber=2/2
Year=2024
Genre=Black Metal
Discnumber=1/1



Register


Go to the top of the page
  Insert nick Quick quote
+Quote Post

Reply to this topicStart new topic
1 User(s) are reading this topic (1 Guests and 0 Anonymous Users)
0 Members:

 



- Lo-Fi Version Support form
Copyrights and abuse reports form
Time is now: 17th June 2024 - 23:53:29