Welcome Guest ( Log In | Register )

Объявления

* gmail.com упорно продолжает считать почту с нас "unsolicited" и отбивает в том числе и письма активации, поэтому просьба использовать альтернативные почтовые ящики.
------------
* gmail.com continues reject all mail from us as "unsolicited" (activation mails too) therefore please use alternate mail servers.

> Releases Upload / Добавление релизов

Добавить релиз тут / Click here to add release
Рекомендованные обменники / Recommended file shares

 
Reply to this topicStart new topic
> Seconds2Midnite - Dystopia (2022), Progressive Metal/Modern Metal
post Jun 10 2024, 17:56:26
Post #1

21st Century Schizoid Man
**************
Group: Металариец
Posts: 8,512
Releases: 338
From: 1984
On Forums: 16 years 1 month
Thanks: 9593 time(s)
Unknown


(IMG:https://metalarea.org/images/audiocovers/2024_Jun/acov_tid398194_thumb.jpg)

*Artist: Seconds2Midnite
*Album: Dystopia
*Year: 2022
*Genre: Progressive Metal/Modern Metal
*Country: Canada (IMG:https://metalarea.org/forum/style_images/flags/Canada.png)
*Format: mp3@CBR320kbps
*Size: 105MB

Tracklist:
01. Crushing 03:13
02. Contortion 03:49
03. Disposable 03:40
04. Fortune 04:07
05. Dystopia 05:30
06. Falling into 04:25
07. Gasoline in the back seat 03:42
08. All dark places 03:54
09. S.I.L.F.A.R 03:56
10. Here we go again 03:22
11. Holier than thou 03:46
******************************
Total playing time: 43:24

(IMG:https://metalarea.org/images/youtube.png)
(IMG:https://metalarea.org/images/youtube.png)
(IMG:https://metalarea.org/images/youtube.png)
(IMG:https://metalarea.org/images/youtube.png)
(IMG:https://metalarea.org/images/youtube.png)

Extended info
Aaron Randall (Annihilator, Wreck Defy) - voice
Tony Hill (Dessert Merc, Deville Throttle) - guitars
Kevin Lovering (Whiskey River Gun club, Wreckin Crew) - drums
Gyula Havancsák (ex-Bornholm) - bass


Technical info
(IMG:https://metalarea.org/images/spectrogram/2024_Jun/5c88d8f259905f82b82991658ab5bfe6.png)
Input File: 01. Crushing.mp3
Channels : 2
Sample Rate : 44100
Precision : 16-bit
Duration : 00:03:13.08 = 8515004 samples = 14481.3 CDDA sectors
File Size : 8.01M
Bit Rate : 332k
Sample Encoding: MPEG audio (layer I, II or III)
Comments :
Title=Crushing
Artist=Seconds2Midnite
Album=Dystopia
Tracknumber=1
Year=2022
Genre=Modern | Progressive Metal



Register


Go to the top of the page
  Insert nick Quick quote
+Quote Post

Reply to this topicStart new topic
1 User(s) are reading this topic (1 Guests and 0 Anonymous Users)
0 Members:

 



- Lo-Fi Version Support form
Copyrights and abuse reports form
Time is now: 23rd June 2024 - 02:27:22