Welcome Guest ( Log In | Register )

Объявления

* gmail.com упорно продолжает считать почту с нас "unsolicited" и отбивает в том числе и письма активации, поэтому просьба использовать альтернативные почтовые ящики.
------------
* gmail.com continues reject all mail from us as "unsolicited" (activation mails too) therefore please use alternate mail servers.

> Releases Upload / Добавление релизов

Добавить релиз тут / Click here to add release
Рекомендованные обменники / Recommended file shares

 
Reply to this topicStart new topic
> Lemuria - Neither Death Nor Live [live] (2024), Symphonic Black Metal (D6)
post Jun 10 2024, 17:59:53
Post #1

Правь статус, 616
**************
Group: Металариец
Posts: 10,827
Releases: 8818
From: 55°35’N 38°08’E
On Forums: 15 years 11 months
Thanks: 156966 time(s)
Russian Federation


(IMG:https://metalarea.org/images/audiocovers/2024_Jun/acov_tid398195_thumb.jpg)

*Artist: Lemuria
*Album: Neither Death Nor Live [live]
*Year: 2024
*Genre: Symphonic Black Metal
*Country: Belgium (IMG:https://metalarea.org/forum/style_images/flags/Belgium.png)
*Format: mp3@CBR320kbps
*Size: 97MB

Tracklist:
1.Of Winter And Hell 06:43
2.Deceptive Hibernation 05:28
3.Between Man And Wolf 06:29
4.The Cross And The Crusade 05:23
5.Endgame (The Impending Truth) 09:08
6.A Coming Storm 08:07
******************************
Total playing time: 41:18



(IMG:https://metalarea.org/images/youtube.png)

Technical info
(IMG:https://metalarea.org/images/spectrogram/2024_Jun/559a0f3929382db7c129adc99efb7db7.png)
Input File: 01 Of Winter And Hell.mp3
Channels : 2
Sample Rate : 44100
Precision : 16-bit
Duration : 00:06:43.70 = 17802950 samples = 30277.1 CDDA sectors
File Size : 16.2M
Bit Rate : 321k
Sample Encoding: MPEG audio (layer I, II or III)
Comments :
Title=Of Winter And Hell
Artist=Lemuria
Album=Neither Death Nor Live
Tracknumber=1/6
Year=2024
Genre=Black Metal
Discnumber=1/1



Register


Go to the top of the page
  Insert nick Quick quote
+Quote Post

Reply to this topicStart new topic
1 User(s) are reading this topic (1 Guests and 0 Anonymous Users)
0 Members:

 



- Lo-Fi Version Support form
Copyrights and abuse reports form
Time is now: 18th June 2024 - 00:17:22