Welcome Guest ( Log In | Register )

Объявления

* gmail.com упорно продолжает считать почту с нас "unsolicited" и отбивает в том числе и письма активации, поэтому просьба использовать альтернативные почтовые ящики.
------------
* gmail.com continues reject all mail from us as "unsolicited" (activation mails too) therefore please use alternate mail servers.

> Releases Upload / Добавление релизов

Добавить релиз тут / Click here to add release
Рекомендованные обменники / Recommended file shares

 
Reply to this topicStart new topic
> Qhwertt - Sympathetic Horror (2017), Funeral/Drone Doom Metal/Ambient
post Jun 10 2024, 18:41:23
Post #1

####!111
**************
Group: Металариец
Posts: 4,780
Releases: 147
From: The Mountain Of DOOM
On Forums: 16 years 8 months
Thanks: 7044 time(s)
Russian Federation


(IMG:https://metalarea.org/images/audiocovers/2024_Jun/acov_tid398197_thumb.jpg)

*Artist: Qhwertt
*Album: Sympathetic Horror
*Year: 2017
*Genre: Funeral/Drone Doom Metal/Ambient
*Country: Argentina (IMG:https://metalarea.org/forum/style_images/flags/Argentina.png)
*Format: mp3@CBR320kbps
*Size: 105MB

Tracklist:
1. Sympathetic Horror 07:26
2. The Abyss Triumphant 09:21
3. The Tartarus of the Suns 10:01
4. The Wingless Archangels 08:14
5. The Soul of the Sea 06:56
6. Ashes of Sunset 03:22
******************************
Total playing time: 45:20


(IMG:https://metalarea.org/images/youtube.png)

Extended info
All lyrics were taken from the poetry of Clark Ashton Smith (1893-1961).
Cover by Joseph C.


Technical info
(IMG:https://metalarea.org/images/spectrogram/2024_Jun/55c0b9b6cbdcde898a7cde36f068c495.png)
Input File: 06 Ashes of Sunset.mp3
Channels : 2
Sample Rate : 44100
Precision : 16-bit
Duration : 00:03:22.38 = 8925002 samples = 15178.6 CDDA sectors
File Size : 8.32M
Bit Rate : 329k
Sample Encoding: MPEG audio (layer I, II or III)
Comments :
Title=Ashes of Sunset
Artist=Qhwertt
Album=Sympathetic Horror
Tracknumber=6
Year=2017



Register


Go to the top of the page
  Insert nick Quick quote
+Quote Post

Reply to this topicStart new topic
1 User(s) are reading this topic (1 Guests and 0 Anonymous Users)
0 Members:

 



- Lo-Fi Version Support form
Copyrights and abuse reports form
Time is now: 18th June 2024 - 00:52:40