Welcome Guest ( Log In | Register )

Объявления

* gmail.com упорно продолжает считать почту с нас "unsolicited" и отбивает в том числе и письма активации, поэтому просьба использовать альтернативные почтовые ящики.
------------
* gmail.com continues reject all mail from us as "unsolicited" (activation mails too) therefore please use alternate mail servers.

> Releases Upload / Добавление релизов

Добавить релиз тут / Click here to add release
Рекомендованные обменники / Recommended file shares

> Feral Massacre - Massacre's Resurgence [ep] (2024), Old School Death Metal
post Jun 10 2024, 20:41:19
Post #1

Правь статус, ####!111
**************
Group: Металариец
Posts: 36,179
Releases: 26973
From: Г.Харьков
On Forums: 12 years 1 month
Thanks: 586082 time(s)
Ukraine


(IMG:https://metalarea.org/images/audiocovers/2024_Jun/acov_tid398199_thumb.jpg)

*Artist: Feral Massacre
*Album: Massacre's Resurgence [ep]
*Year: 2024
*Genre: Old School Death Metal
*Country: Bangladesh (IMG:https://metalarea.org/forum/style_images/flags/Bangladesh.png)
*Format: mp3@CBR320kbps
*Size: 39MB

Tracklist:
1. Emergence of Abaddon 03:27
2. Noxious Chant 04:12
3. Ode To the Eternal Massacre 03:06
4. Devoured by Dread 05:57
******************************
Total playing time: 16:42




Extended info
Bandcamp


Technical info
(IMG:https://metalarea.org/images/spectrogram/2024_Jun/b294b25fbe57117cf64c2d10b6475472.png)
Input File: Feral Massacre - MASSACRE\'S RESURGENCE - 04 Devoured by Dread.mp3
Channels : 2
Sample Rate : 44100
Precision : 16-bit
Duration : 00:05:57.58 = 15769410 samples = 26818.7 CDDA sectors
File Size : 14.5M
Bit Rate : 324k
Sample Encoding: MPEG audio (layer I, II or III)
Comments :
Title=Devoured by Dread
Artist=Feral Massacre
Album=MASSACRE'S RESURGENCE
Tracknumber=4
Year=2024



Register


Go to the top of the page
  Insert nick Quick quote
+Quote Post
 
Start new topic
Replies (1 - 2)
post Jun 11 2024, 09:58:42
Post #2

Правь статус, ####!111
**************
Group: Металариец
Posts: 2,701
Releases: 425
From: Bretagne
On Forums: 16 years 1 month
Thanks: 5262 time(s)
France


nice professionnal death metal! (IMG:style_emoticons/default/20.gif)
Go to the top of the page
  Insert nick Quick quote
+Quote Post
post Jun 13 2024, 08:09:40
Post #3

Маньяк
**********
Group: Металариец
Posts: 1,286
Releases: 0
From: Isla de Margarita, Venezuela
On Forums: 5 years 5 months
Thanks: 401 time(s)
Venezuela


Blackened DM/Old School DM

Good (IMG:style_emoticons/default/20.gif)
Go to the top of the page
  Insert nick Quick quote
+Quote Post

Reply to this topicStart new topic
1 User(s) are reading this topic (1 Guests and 0 Anonymous Users)
0 Members:

 



- Lo-Fi Version Support form
Copyrights and abuse reports form
Time is now: 18th June 2024 - 01:22:00