Welcome Guest ( Log In | Register )

Объявления

* gmail.com упорно продолжает считать почту с нас "unsolicited" и отбивает в том числе и письма активации, поэтому просьба использовать альтернативные почтовые ящики.
------------
* gmail.com continues reject all mail from us as "unsolicited" (activation mails too) therefore please use alternate mail servers.

> И неформату есть предел.

Рэп/хип-хоп/шансон/поп удаляются. Для них есть свои порталы.

> Babymetal - Metal Galaxy (2019), Kawaii Extreme Metal (D12)
post Jun 10 2024, 21:16:26
Post #1

Правь статус, ####!111
**************
Group: Металариец
Posts: 4,849
Releases: 29
From: Holland
On Forums: 17 years 11 months
Thanks: 1959 time(s)
Netherlands


(IMG:https://metalarea.org/images/audiocovers/2024_Jun/acov_tid398200_thumb.jpg)

*Artist: Babymetal
*Album: Metal Galaxy
*Year: 2019
*Genre: Kawaii Extreme Metal
*Country: Japan (IMG:https://metalarea.org/forum/style_images/flags/Japan.png)
*Format: mp3@CBR320kbps
*Size: 134MB

Tracklist:
01. Future Metal 02:04
02. Da Da Dance 03:51
03. Elevator Girl 02:46
04. Shanti Shanti Shanti 03:08
05. Oh! Majinai 03:12
06. Brand New Day 04:07
07. ↑↓←→BBAB 03:03
08. Night Night Burn! 03:40
09. In The Name Of 04:30
10. Distortion 03:03
11. PA PA YA!! 03:55
12. BxMxC 02:59
13. Kagerou 03:30
14. Starlight 03:35
15. Shine 05:48
16. Arkadia 05:20
******************************
Total playing time: 58:31

(IMG:https://metalarea.org/images/youtube.png)
(IMG:https://metalarea.org/images/youtube.png)

Technical info
(IMG:https://metalarea.org/images/spectrogram/2024_Jun/1c89a5358aee334fb6059f0f82699d7f.png)
Input File: 01 - Future Metal.mp3
Channels : 2
Sample Rate : 44100
Precision : 16-bit
Duration : 00:02:04.69 = 5498917 samples = 9351.9 CDDA sectors
File Size : 4.99M
Bit Rate : 320k
Sample Encoding: MPEG audio (layer I, II or III)
Comments :
Title=Future Metal
Artist=Babymetal
Album=Metal Galaxy
Tracknumber=1
Year=2019
Genre=Metalcore



Register


Thanks:
Go to the top of the page
  Insert nick Quick quote
+Quote Post
 
Start new topic
Replies (1 - 4)
post Jun 11 2024, 03:34:16
Post #2

Правь статус, ####!111
**************
Group: Металариец
Posts: 3,196
Releases: 0
From: д. Гадюкино
On Forums: 10 years 1 month
Thanks: 3269 time(s)
Russian Federation


FLAC (Tracks + cue)
Register
Go to the top of the page
  Insert nick Quick quote
+Quote Post
post Jun 11 2024, 09:09:54
Post #3

Мегаманьяк
***********
Group: Металариец
Posts: 1,918
Releases: 105
From: Санкт-Петербург
On Forums: 18 years 1 month
Thanks: 5313 time(s)
Russian Federation


Смотрел как-то на ютубе интервью с экс-вокалистом/шоуменом коллектива НОМ Иваном Туристом. В музыкальных паузах между воспоминаниями ведущий крутил песни по заявкам гостя в студии, и Турист, он же Юрий Салтыков, все время просил ставить клипы именно вот этой вот странной группы. До этого я только назвпние ее вроде бы слышал, ну, думаю, вот заодно и ознакомлюсь. Ознакомился - запомнил только, что ни один из этих клипов я не выдержал до конца, перематывая до следующей части беседы. Имхо, просто какая-то муть слегка эпатажная.


Thanks:
(1) RUSP73,
Go to the top of the page
  Insert nick Quick quote
+Quote Post
post Jun 11 2024, 10:33:41
Post #4

Ёлд ХеллоВяйне
Group Icon
Group: V.I.P
Posts: 34,884
Releases: 143
From: Питер
On Forums: 17 years 7 months
Thanks: 22001 time(s)
Russian Federation


QUOTE(as71 @ 11th June 2024 - 11:09:54) *
Смотрел как-то на ютубе интервью с экс-вокалистом/шоуменом коллектива НОМ Иваном Туристом. В музыкальных паузах между воспоминаниями ведущий крутил песни по заявкам гостя в студии, и Турист, он же Юрий Салтыков, все время просил ставить клипы именно вот этой вот странной группы. До этого я только назвпние ее вроде бы слышал, ну, думаю, вот заодно и ознакомлюсь. Ознакомился - запомнил только, что ни один из этих клипов я не выдержал до конца, перематывая до следующей части беседы. Имхо, просто какая-то муть слегка эпатажная.


Лучше бы наоборот — в интервью Babymetal ставили клипы НОМ.

Старые, конечно.
Go to the top of the page
  Insert nick Quick quote
+Quote Post
post Jun 11 2024, 16:20:37
Post #5

De Mysteriis Dom Sathanas
**************
Group: Металариец
Posts: 4,816
Releases: 64
From: Doom
On Forums: 15 years 11 months
Thanks: 4295 time(s)
Russian Federation


ЦИТАТА(as71 @ Jun 11 2024, 11:09:54) *
Смотрел как-то на ютубе интервью с экс-вокалистом/шоуменом коллектива НОМ Иваном Туристом. В музыкальных паузах между воспоминаниями ведущий крутил песни по заявкам гостя в студии, и Турист, он же Юрий Салтыков, все время просил ставить клипы именно вот этой вот странной группы. До этого я только назвпние ее вроде бы слышал, ну, думаю, вот заодно и ознакомлюсь. Ознакомился - запомнил только, что ни один из этих клипов я не выдержал до конца, перематывая до следующей части беседы. Имхо, просто какая-то муть слегка эпатажная.

Пока ушастая вокалистка(и) не начинает петь музычка еще ничего, сойдет для япошек, такой типа тяжелый метальчик с уклоном в тематику всяких годзилл и аниме. С Rob Halford ничего так спели Painkiller и Breaking The Law, правда песня не их, ну и сам старпер уже не торт)
Go to the top of the page
  Insert nick Quick quote
+Quote Post

Reply to this topicStart new topic
1 User(s) are reading this topic (1 Guests and 0 Anonymous Users)
0 Members:

 



- Lo-Fi Version Support form
Copyrights and abuse reports form
Time is now: 23rd June 2024 - 01:59:06