Welcome Guest ( Log In | Register )

Объявления

* gmail.com упорно продолжает считать почту с нас "unsolicited" и отбивает в том числе и письма активации, поэтому просьба использовать альтернативные почтовые ящики.
------------
* gmail.com continues reject all mail from us as "unsolicited" (activation mails too) therefore please use alternate mail servers.

> Releases Upload / Добавление релизов

Добавить релиз тут / Click here to add release
Рекомендованные обменники / Recommended file shares

 
Reply to this topicStart new topic
> Rotten Tomb - Abysmatic Proclamations [compilation] (2023), Death Metal (D6)
post Jun 10 2024, 23:41:51
Post #1

Правь статус, ####!111
**************
Group: Металариец
Posts: 36,179
Releases: 26973
From: Г.Харьков
On Forums: 12 years 1 month
Thanks: 586081 time(s)
Ukraine


(IMG:https://metalarea.org/images/audiocovers/2024_Jun/acov_tid398202_thumb.jpg)

*Artist: Rotten Tomb
*Album: Abysmatic Proclamations [compilation]
*Year: 2023
*Genre: Death Metal
*Country: Chile (IMG:https://metalarea.org/forum/style_images/flags/Chile.png)
*Format: mp3@CBR320kbps
*Size: 134MB

Tracklist:
01. Intro (Last Breath)
02. Possessed By Death
03. Mortuary Desires
04. Coagulated Life In Death
05. Necropolis
06. Outro (Last Breath)
07. Death Arrival (Intro)
08. Antithesis Of Life
09. Nihilist Delirium
10. Outro (R.I.P.)
11. Hidden Track
12. Human Paradox
13. Devourer Of Life
14. Auguring An Eternal War (Dead Congregation Cover)
15. Internal Fear (Single)
******************************
Total playing time: 57:37




Extended info
CD-Rip
C. Guitars, Bass (2016-present)
See also: ex-Excised
Deathbringer Guitars, Vocals (2016-present)
See also: Atomicide, Hades
Utukku Bass (2017-present)
A. Prophaner Drums (2017-present)
See also: Darkest Force, Death Skull, Hades, Metaphysis, ex-Excised, ex-Octagram, ex-Atomicide, ex-Diabolikal, ex-Necropsia, ex-Unholy Temple


Technical info
(IMG:https://metalarea.org/images/spectrogram/2024_Jun/e2fcf1a5228e6d3c64b3890f6bcb7613.png)
Input File: Rotten Tomb - Abysmatic Proclamations - 09. Nihilist Delirium.mp3
Channels : 2
Sample Rate : 44100
Precision : 16-bit
Duration : 00:05:04.05 = 13408473 samples = 22803.5 CDDA sectors
File Size : 12.5M
Bit Rate : 328k
Sample Encoding: MPEG audio (layer I, II or III)
Comments :
Title=Nihilist Delirium
Artist=Rotten Tomb
Album=Abysmatic Proclamations
Tracknumber=09
Year=2023
Genre=Metal



Register


Go to the top of the page
  Insert nick Quick quote
+Quote Post

Reply to this topicStart new topic
1 User(s) are reading this topic (1 Guests and 0 Anonymous Users)
0 Members:

 



- Lo-Fi Version Support form
Copyrights and abuse reports form
Time is now: 18th June 2024 - 00:05:35