Welcome Guest ( Log In | Register )

Объявления

* gmail.com упорно продолжает считать почту с нас "unsolicited" и отбивает в том числе и письма активации, поэтому просьба использовать альтернативные почтовые ящики.
------------
* gmail.com continues reject all mail from us as "unsolicited" (activation mails too) therefore please use alternate mail servers.

> Releases Upload / Добавление релизов

Добавить релиз тут / Click here to add release
Рекомендованные обменники / Recommended file shares

> Massive Assault - Metal Of Death (2024), Old School Death Metal (D)
post Jun 11 2024, 00:20:02
Post #1

Правь статус, ####!111
**************
Group: Металариец
Posts: 36,231
Releases: 27013
From: Г.Харьков
On Forums: 12 years 1 month
Thanks: 587116 time(s)
Ukraine


(IMG:https://metalarea.org/images/audiocovers/2024_Jun/acov_tid398204_thumb.jpg)

*Artist: Massive Assault
*Album: Metal Of Death
*Year: 2024
*Genre: Old School Death Metal
*Country: Netherlands (IMG:https://metalarea.org/forum/style_images/flags/Netherlands.png)
*Format: mp3@CBR320kbps
*Size: 93MB

Tracklist:
01. Death March
02. Lost Souls
03. Conquer The Darkness
04. Misplaced Faith
05. Reborn
06. Dead Town
07. Trommelfeuer
08. Endless War
09. Living In Denial
******************************
Total playing time: 40:13




Extended info
Fredde Kaddeth Guitars (2002-present)
See also: Sledgehammer Nosejob, Overruled (live), ex-Absorbed, ex-Miscreants, Deathrace Kings
Carl-Cristian Vocals (2002-2004, 2010-present)
See also: Headless Dawn, Sledgehammer Nosejob, ex-Phlebotomized, ex-Burning Hatred (live), ex-Iconoclast
Gideon Weppner Drums (2004-2006, 2009-present)
See also: ex-Cerebral Tumor, ex-Hammer of Justice (Metallica tribute)
Jos Kracht Vocals (2005-2010), Bass, Vocals (backing) (2010-present)


Technical info
(IMG:https://metalarea.org/images/spectrogram/2024_Jun/91f07799f95e9c0de746e421f8545720.png)
Input File: Massive Assault - METAL OF DEATH - 08 08 Endless War.mp3
Channels : 2
Sample Rate : 44100
Precision : 16-bit
Duration : 00:05:57.17 = 15750977 samples = 26787.4 CDDA sectors
File Size : 14.4M
Bit Rate : 323k
Sample Encoding: MPEG audio (layer I, II or III)
Comments :
Title=08 Endless War
Artist=Massive Assault
Album=METAL OF DEATH
Tracknumber=8
Year=2024



Register


Go to the top of the page
  Insert nick Quick quote
+Quote Post
 
Start new topic
Replies (1 - 5)
post Jun 11 2024, 09:47:48
Post #2

Семь Литров
*******
Group: Металариец
Posts: 790
Releases: 0
From: simferopol
On Forums: 17 years 2 weeks
Thanks: 387 time(s)
Ukraine


На превьюхе трек офигенный, звучит лучше всего прошлого альбома


Thanks:
Go to the top of the page
  Insert nick Quick quote
+Quote Post
post Jun 11 2024, 14:23:15
Post #3

Правь статус, ####!111
**************
Group: Металариец
Posts: 36,231
Releases: 27013
From: Г.Харьков
On Forums: 12 years 1 month
Thanks: 587116 time(s)
Ukraine


FLAC (Tracks) 502 mb
Register

or from bandcamp NYP


Go to the top of the page
  Insert nick Quick quote
+Quote Post
post Jun 11 2024, 16:38:50
Post #4

Литр
*
Group: Подсевший
Posts: 91
Releases: 1
From: Краснодар
On Forums: 7 years 7 months
Thanks: 38 time(s)
Russian Federation


клевая банда, стоит заценить)
Go to the top of the page
  Insert nick Quick quote
+Quote Post
post Jun 11 2024, 20:15:45
Post #5

Семь Литров
*******
Group: Металариец
Posts: 790
Releases: 0
From: simferopol
On Forums: 17 years 2 weeks
Thanks: 387 time(s)
Ukraine


Может просто в настроение попало, но альбом зашибенный, за сегодня раза три прокрутил. Прямо классика голландской школы, с вкраплениями Бенедикшна, Ентомбед и околослэмовых прокачек. Только сегодня отписался в теме лучших дет альбомов за первое полугодие 2024, но, вероятно, если бы я писал завтра, этот альбом был бы на первом месте.


Thanks:
Go to the top of the page
  Insert nick Quick quote
+Quote Post
post Jun 14 2024, 07:28:22
Post #6

мизантроп
**************
Group: Металариец
Posts: 2,107
Releases: 0
From: Санкт-Петербург
On Forums: 14 years 9 months
Thanks: 949 time(s)
Russian Federation


Как минимум "неплохо", но как-то не хватает "яркости/интересности" что-ли...
Нормально слушается, но после прослушивания ничего не вспоминается...
Go to the top of the page
  Insert nick Quick quote
+Quote Post

Reply to this topicStart new topic
2 User(s) are reading this topic (2 Guests and 0 Anonymous Users)
0 Members:

 



- Lo-Fi Version Support form
Copyrights and abuse reports form
Time is now: 23rd June 2024 - 02:57:01