Welcome Guest ( Log In | Register )

Объявления

* gmail.com упорно продолжает считать почту с нас "unsolicited" и отбивает в том числе и письма активации, поэтому просьба использовать альтернативные почтовые ящики.
------------
* gmail.com continues reject all mail from us as "unsolicited" (activation mails too) therefore please use alternate mail servers.

> Releases Upload / Добавление релизов

Добавить релиз тут / Click here to add release
Рекомендованные обменники / Recommended file shares

> Latter Day Exploits - Grief [ep] (2024), Industrial Black Metal
post Jun 11 2024, 04:33:31
Post #1

Правь статус, ####!111
**************
Group: Металариец
Posts: 9,103
Releases: 7339
On Forums: 13 years 6 months
Thanks: 129261 time(s)
Italy


(IMG:https://metalarea.org/images/audiocovers/2024_Jun/acov_tid398205_thumb.jpg)

*Artist: Latter Day Exploits
*Album: Grief [ep]
*Year: 2024
*Genre: Industrial Black Metal
*Country: United States (IMG:https://metalarea.org/forum/style_images/flags/United%20States.png)
*Format: mp3@CBR320kbps
*Size: 56MB

Tracklist:
1.Be Still 08:26
2.Discourse 08:58
3.Through 07:05
******************************
Total playing time: 24:29



Extended info
Unblack


Technical info
(IMG:https://metalarea.org/images/spectrogram/2024_Jun/26e6bb36e77aebcfdccfd0e11212dbda.png)
Input File: 3.Through.mp3
Channels : 2
Sample Rate : 44100
Precision : 16-bit
Duration : 00:07:05.17 = 18749953 samples = 31887.7 CDDA sectors
File Size : 17.1M
Bit Rate : 322k
Sample Encoding: MPEG audio (layer I, II or III)
Comments :
Title=Through
Artist=Latter Day Exploits
Album=Grief
Tracknumber=3/3
Year=2024
Discnumber=1/1



Register


Go to the top of the page
  Insert nick Quick quote
+Quote Post
 
Start new topic
Replies (1 - 1)
post Jun 12 2024, 09:15:35
Post #2

Правь статус, ####!111
**************
Group: Металариец
Posts: 2,701
Releases: 425
From: Bretagne
On Forums: 16 years 1 month
Thanks: 5262 time(s)
France


from bandcamp :
QUOTE
Latter Day Exploits is a Christian Experimental Metal Project

(IMG:style_emoticons/default/fear.gif) (IMG:style_emoticons/default/fear.gif)
Go to the top of the page
  Insert nick Quick quote
+Quote Post

Reply to this topicStart new topic
1 User(s) are reading this topic (1 Guests and 0 Anonymous Users)
0 Members:

 



- Lo-Fi Version Support form
Copyrights and abuse reports form
Time is now: 18th June 2024 - 00:53:44