Welcome Guest ( Log In | Register )

Объявления

* gmail.com упорно продолжает считать почту с нас "unsolicited" и отбивает в том числе и письма активации, поэтому просьба использовать альтернативные почтовые ящики.
------------
* gmail.com continues reject all mail from us as "unsolicited" (activation mails too) therefore please use alternate mail servers.

> Releases Upload / Добавление релизов

Добавить релиз тут / Click here to add release
Рекомендованные обменники / Recommended file shares

 
Reply to this topicStart new topic
> Ghül - Fuin Na Hain [ep] (2024), Black Metal (D4)
post Jun 11 2024, 04:35:57
Post #1

Правь статус, ####!111
**************
Group: Металариец
Posts: 9,103
Releases: 7339
On Forums: 13 years 6 months
Thanks: 129261 time(s)
Italy


(IMG:https://metalarea.org/images/audiocovers/2024_Jun/acov_tid398206_thumb.jpg)

*Artist: Ghül
*Album: Fuin Na Hain [ep]
*Year: 2024
*Genre: Black Metal
*Country: United Kingdom (IMG:https://metalarea.org/forum/style_images/flags/United%20Kingdom.png)
*Format: mp3@CBR320kbps
*Size: 41MB

Tracklist:
1.Gwathren Neder 06:30
2.Fuin Na Hain 06:33
3.Dúr Rochben 05:05
******************************
Total playing time: 18:08



Technical info
(IMG:https://metalarea.org/images/spectrogram/2024_Jun/e968873169dcdabdb0c2c93bae7f5661.png)
Input File: 2.Fuin Na Hain.mp3
Channels : 2
Sample Rate : 44100
Precision : 16-bit
Duration : 00:06:33.09 = 17335225 samples = 29481.7 CDDA sectors
File Size : 15.8M
Bit Rate : 321k
Sample Encoding: MPEG audio (layer I, II or III)
Comments :
Title=Fuin Na Hain
Artist=Ghül
Album=Fuin Na Hain
Tracknumber=2/3
Year=2024
Discnumber=1/1



Register


Go to the top of the page
  Insert nick Quick quote
+Quote Post

Reply to this topicStart new topic
1 User(s) are reading this topic (1 Guests and 0 Anonymous Users)
0 Members:

 



- Lo-Fi Version Support form
Copyrights and abuse reports form
Time is now: 18th June 2024 - 01:09:39