Welcome Guest ( Log In | Register )

Объявления

* gmail.com упорно продолжает считать почту с нас "unsolicited" и отбивает в том числе и письма активации, поэтому просьба использовать альтернативные почтовые ящики.
------------
* gmail.com continues reject all mail from us as "unsolicited" (activation mails too) therefore please use alternate mail servers.

> Releases Upload / Добавление релизов

Добавить релиз тут / Click here to add release
Рекомендованные обменники / Recommended file shares

 
Reply to this topicStart new topic
> Cianalas - Far Beyond Healing (2024), Melodic/Progressive Extreme Metal
post Jun 11 2024, 04:54:56
Post #1

Правь статус, ####!111
**************
Group: Металариец
Posts: 9,145
Releases: 7378
On Forums: 13 years 7 months
Thanks: 129920 time(s)
Italy


(IMG:https://metalarea.org/images/audiocovers/2024_Jun/acov_tid398207_thumb.jpg)

*Artist: Cianalas
*Album: Far Beyond Healing
*Year: 2024
*Genre: Melodic/Progressive Extreme Metal
*Country: Switzerland (IMG:https://metalarea.org/forum/style_images/flags/Switzerland.png)
*Format: mp3@CBR320kbps
*Size: 132MB

Tracklist:
1.Evidence In Everything 04:49
2.Through Ages Standing Tall 05:19
3.Nothing Out There 05:57
4.Better Days 05:24
5.All Hail The Blinded 05:10
6.Far Beyond Healing 06:47
7.We're The Idols 04:12
8.The Opponent 06:13
9.Let The Towers Fall 07:16
10.Another Visit To Their Hell 06:06
******************************
Total playing time: 57:13



Technical info
(IMG:https://metalarea.org/images/spectrogram/2024_Jun/8585a557cce25d991846ed22f0d4e992.png)
Input File: 2.Through Ages Standing Tall.mp3
Channels : 2
Sample Rate : 44100
Precision : 16-bit
Duration : 00:05:19.26 = 14079498 samples = 23944.7 CDDA sectors
File Size : 13.0M
Bit Rate : 327k
Sample Encoding: MPEG audio (layer I, II or III)
Comments :
Title=Through Ages Standing Tall
Artist=Cianalas
Album=Far Beyond Healing
Tracknumber=2/10
Year=2024
Discnumber=1/1



Register


Go to the top of the page
  Insert nick Quick quote
+Quote Post

Reply to this topicStart new topic
1 User(s) are reading this topic (1 Guests and 0 Anonymous Users)
0 Members:

 



- Lo-Fi Version Support form
Copyrights and abuse reports form
Time is now: 23rd June 2024 - 03:42:12