Welcome Guest ( Log In | Register )

Объявления

* gmail.com упорно продолжает считать почту с нас "unsolicited" и отбивает в том числе и письма активации, поэтому просьба использовать альтернативные почтовые ящики.
------------
* gmail.com continues reject all mail from us as "unsolicited" (activation mails too) therefore please use alternate mail servers.

> Releases Upload / Добавление релизов

Добавить релиз тут / Click here to add release
Рекомендованные обменники / Recommended file shares

> S.T.R.A.H. - Nocturnal Exorcist (2024), Black/Death Metal
post Jun 11 2024, 05:15:37
Post #1

Правь статус, ####!111
**************
Group: Металариец
Posts: 9,103
Releases: 7339
On Forums: 13 years 6 months
Thanks: 129260 time(s)
Italy


(IMG:https://metalarea.org/images/audiocovers/2024_Jun/acov_tid398208_thumb.jpg)

*Artist: S.T.R.A.H.
*Album: Nocturnal Exorcist
*Year: 2024
*Genre: Black/Death Metal
*Country: Bulgaria (IMG:https://metalarea.org/forum/style_images/flags/Bulgaria.png)
*Format: mp3@CBR320kbps
*Size: 65MB

Tracklist:
1.Entrance to Blasphemies 00:47
2.Possesion of a Catatonic 04:27
3.Desecrated 05:26
4.Witchboard 04:20
5.Dead at Midnight 03:56
6.Portal to Damnation Laid Open 00:27
7.Evil Spirit from the Mirror 03:15
8.Between the Walls of Terror 04:14
******************************
Total playing time: 26:52



Technical info
(IMG:https://metalarea.org/images/spectrogram/2024_Jun/a52970d98c177ea7a442bdcf09755b59.png)
Input File: 3.Desecrated.mp3
Channels : 2
Sample Rate : 44100
Precision : 16-bit
Duration : 00:05:26.00 = 14376600 samples = 24450 CDDA sectors
File Size : 13.3M
Bit Rate : 326k
Sample Encoding: MPEG audio (layer I, II or III)
Comments :
Title=Desecrated
Artist=S.T.R.A.H.
Album=Nocturnal Exorcist
Tracknumber=3
Year=2024
Genre=Death/Black Metal
Discnumber=1



Register


Go to the top of the page
  Insert nick Quick quote
+Quote Post
 
Start new topic
Replies (1 - 1)
post Jun 11 2024, 22:24:48
Post #2

Правь статус, ####!111
**************
Group: Металариец
Posts: 4,523
Releases: 0
From: UK
On Forums: 7 years 11 months
Thanks: 1203 time(s)
United Kingdom


FLAC please (IMG:style_emoticons/default/pray.gif)
Go to the top of the page
  Insert nick Quick quote
+Quote Post

Reply to this topicStart new topic
1 User(s) are reading this topic (1 Guests and 0 Anonymous Users)
0 Members:

 



- Lo-Fi Version Support form
Copyrights and abuse reports form
Time is now: 17th June 2024 - 23:08:23